Джунгли (Александр Войтинский) [2012, мелодрама, комедия, приключения, BDRip 1080p]

Ответить на тему
 
Автор Сообщение

user ®

Стаж: 7 лет 7 месяцев

Сообщений: 20008

Пост Пост: #1 от 23-Июл-2013 22:46

[Цитировать]

Джунгли
Страна: Россия
Студия: Кинокомпания CTB
Жанр: мелодрама, комедия, приключения
Год выпуска: 2012
Продолжительность: 01:24:20
Навигация по главам: есть
Субтитры: нет
Режиссер: Александр Войтинский
В ролях: Сергей Светлаков, Вера Брежнева, Александр Макогон, Александр Половцев, Марина Дюжева, Михаил Ефремов, Ирина Медведева, Андрей Гаврилов
Описание: У Сергея и Марины в семейной жизни наступил кризис. Во время одной из ссор, они решают поехать в экзотическое путешествие. Всю дорогу между супругами не утихают ссоры, которые в конце концов приводят к тому, что они оказываются на необитаемом острове, затерянном в океане. Вместо того чтобы вместе бороться за выживание, наши герои продолжают выяснять отношения, постепенно переходя к настоящим боевым действиям. В довершение несчастий оказывается, что остров населен племенем воинствующих туземцев.

Релиз: fanatus
Качество видео: BDRip 1080p
Исходник: Blu-ray 1080p AVC DTS HD 5.1 - HDCLUB
Контейнер: MKV
Видео: MPEG-4 AVC, 15000 kbps , 1920x814 (2.35:1), 23.976 fps, 0.400 bit/pixel
Аудио: DTS, 6 ch, 48 kHz, 1510 kbps

MediaInfo

General
Unique ID : 175801459377999769621995009784712393748 (0x84422126254A0FA3A221E38B1905F414)
Complete name : D:\Dzhungli.2012.x264.BDRip.1080p.fanatus.mkv
Format : Matroska
Format version : Version 2
File size : 9.62 GiB
Duration : 1h 23mn
Overall bit rate : 16.5 Mbps
Movie name : Dzhungli (2012) - fanatus
Encoded date : UTC 2013-05-13 08:01:17
Writing application : mkvmerge v3.4.0 ('Rapunzel') сборка от May 15 2010 09:38:20
Writing library : libebml v0.8.0 + libmatroska v0.9.0
Video
ID : 1
Format : AVC
Format/Info : Advanced Video Codec
Format profile : High@L4.1
Format settings, CABAC : Yes
Format settings, ReFrames : 5 frames
Codec ID : V_MPEG4/ISO/AVC
Duration : 1h 23mn
Bit rate : 15.0 Mbps
Width : 1 920 pixels
Height : 814 pixels
Display aspect ratio : 2.35:1
Frame rate : 23.976 fps
Color space : YUV
Chroma subsampling : 4:2:0
Bit depth : 8 bits
Scan type : Progressive
Bits/(Pixel*Frame) : 0.400
Stream size : 8.55 GiB (89%)
Title : Dzhungli (2012)
Writing library : x264 core 132 r2323+704+51 d571b1c tMod [8-bit@all X86]
Encoding settings : cabac=1 / ref=5 / deblock=1:-3:-3 / analyse=0x3:0x113 / me=tesa / subme=11 / psy=1 / fade_compensate=0.00 / psy_rd=1.10:0.05 / mixed_ref=1 / me_range=48 / chroma_me=1 / trellis=2 / 8x8dct=1 / cqm=0 / deadzone=21,11 / fast_pskip=0 / chroma_qp_offset=-3 / threads=16 / lookahead_threads=2 / sliced_threads=0 / nr=0 / decimate=0 / interlaced=0 / bluray_compat=0 / constrained_intra=0 / fgo=0 / bframes=8 / b_pyramid=2 / b_adapt=2 / b_bias=0 / direct=3 / weightb=1 / open_gop=0 / weightp=2 / keyint=240 / keyint_min=23 / scenecut=40 / intra_refresh=0 / rc_lookahead=240 / rc=2pass / mbtree=0 / bitrate=15000 / ratetol=1.0 / qcomp=0.75 / qpmin=0 / qpmax=51 / qpstep=4 / cplxblur=20.0 / qblur=0.5 / vbv_maxrate=50000 / vbv_bufsize=62500 / nal_hrd=none / ip_ratio=1.30 / pb_ratio=1.20 / aq=4:0.85 / aq-sensitivity=10.00 / aq-factor=1.00:1.00:1.00 / aq2=0 / aq3=0
Language : Russian
Default : Yes
Forced : No
Color primaries : BT.709-5, BT.1361, IEC 61966-2-4, SMPTE RP177
Transfer characteristics : BT.709-5, BT.1361
Matrix coefficients : BT.709-5, BT.1361, IEC 61966-2-4 709, SMPTE RP177
Audio
ID : 2
Format : DTS
Format/Info : Digital Theater Systems
Codec ID : A_DTS
Duration : 1h 23mn
Bit rate mode : Constant
Bit rate : 1 510 Kbps
Channel(s) : 6 channels
Channel positions : Front: L C R, Side: L R, LFE
Sampling rate : 48.0 KHz
Bit depth : 16 bits
Compression mode : Lossy
Stream size : 901 MiB (9%)
Title : Original
Language : Russian
Default : Yes
Forced : No
Menu
00:00:00.000 : en:Chapter 01
00:04:00.740 : en:Chapter 02
00:07:56.267 : en:Chapter 03
00:14:02.007 : en:Chapter 04
00:17:18.287 : en:Chapter 05
00:21:46.930 : en:Chapter 06
00:27:42.410 : en:Chapter 07
00:34:58.763 : en:Chapter 08
00:40:15.579 : en:Chapter 09
00:46:24.239 : en:Chapter 10
00:51:48.021 : en:Chapter 11
00:56:29.052 : en:Chapter 12
01:00:57.987 : en:Chapter 13
01:07:08.065 : en:Chapter 14
01:13:54.096 : en:Chapter 15
01:18:50.183 : en:Chapter 16
01:23:27.210 : en:Chapter 17

x264 [info]

x264 [info]: 1920x814p 1:1 @ 24000/1001 fps (cfr)
x264 [info]: frame I:1050 Avg QP:16.30 size:266685
x264 [info]: frame P:34876 Avg QP:18.95 size:120098
x264 [info]: frame B:84137 Avg QP:20.13 size: 58377
x264 [info]: consecutive B-frames: 7.1% 7.0% 15.0% 26.0% 14.9% 24.6% 3.2% 1.3% 0.9%
x264 [info]: mb I I16..4: 13.9% 62.0% 24.1%
x264 [info]: mb P I16..4: 2.7% 18.9% 2.1% P16..4: 27.6% 31.2% 11.7% 0.0% 0.0% skip: 5.8%
x264 [info]: mb B I16..4: 0.5% 3.9% 0.4% B16..8: 34.7% 22.9% 5.0% direct: 9.5% skip:23.1% L0:38.5% L1:41.0% BI:20.4%
x264 [info]: 8x8 transform intra:78.3% inter:55.2%
x264 [info]: direct mvs spatial:98.2% temporal:1.8%
x264 [info]: coded y,uvDC,uvAC intra: 85.1% 87.1% 70.3% inter: 42.9% 45.4% 20.0%
x264 [info]: i16 v,h,dc,p: 50% 21% 5% 25%
x264 [info]: i8 v,h,dc,ddl,ddr,vr,hd,vl,hu: 9% 10% 9% 10% 13% 12% 12% 12% 13%
x264 [info]: i4 v,h,dc,ddl,ddr,vr,hd,vl,hu: 10% 11% 7% 8% 14% 13% 13% 11% 12%
x264 [info]: i8c dc,h,v,p: 42% 22% 18% 18%
x264 [info]: Weighted P-Frames: Y:1.6% UV:0.9%
x264 [info]: ref P L0: 54.9% 13.8% 18.0% 6.3% 5.8% 1.2% 0.0%
x264 [info]: ref B L0: 82.4% 12.9% 3.6% 1.1%
x264 [info]: ref B L1: 94.7% 5.3%
x264 [info]: kb/s:14985.58
x264 [info]: encoded 120063 frames, 1.5336 fps, 14985.58 kb/s, 8945.7 MB

Скриншот c названием фильма

Скриншоты

Source vs Rip




Скачать

Скачать торрент!

Как скачивать? · Что такое торрент? · Рейтинг и ограничения

Сайт не распространяет и не хранит электронные версии произведений, а лишь предоставляет доступ к создаваемому пользователями каталогу ссылок на торрент-файлы, которые содержат только списки хеш-сумм

[Профиль] [ЛС]
Показать сообщения:    
Ответить на тему

Текущее время: Сегодня 18:04

Часовой пояс: GMT + 4



Вы не можете начинать темы
Вы не можете отвечать на сообщения
Вы не можете редактировать свои сообщения
Вы не можете удалять свои сообщения
Вы не можете голосовать в опросах
Вы не можете прикреплять файлы к сообщениям
Вы не можете скачивать файлы