Настоящая любовь (Сергей Попов) [2012, Россия, Комедия, мелодрама, HDTV 1080i]

Ответить на тему
 
Автор Сообщение

user ®

Стаж: 7 лет 7 месяцев

Сообщений: 20008

Пост Пост: #1 от 23-Июл-2013 22:46

[Цитировать]

Настоящая любовь
Страна: Россия
Студия: ООО "Русские Золотые Серии"
Жанр: Комедия, мелодрама
Год выпуска: 2012
Продолжительность: 01:33:42
Перевод: Не требуется
Cубтитры: нет
Режиссер: Сергей Попов
В ролях: Илья Носков, Кристина Асмус, Анна Ардова, Ольга Тумайкина, Виталий Хаев, Тимофей Трибунцев, Артур Ваха, Анна Уколова, Алексей Гришин, Дарья Чаруша и другие.
Описание: Состоятельный адвокат Андрей и начинающая журналистка Лена - каждый по-своему несчастлив в личной жизни. Разведенный Андрей инкогнито ищет настоящую любовь, переодеваясь в нищего, потому что убежден: деньги портят чувства. А Лена тем временем полностью разочаровалась в мужчинах. Теперь ее цель - получить хорошую работу в газете, и в поисках сенсации она решает вывести на чистую воду брачных аферистов. Судьба сводит их вместе…
Сэмпл: http://rusfolder.com/36568075
Тип релиза: HDTV 1080i
Контейнер: TS
Доп. информация: Релиз -

Рип чистый. Без посторонних надписей. Выкладывается как есть.
Видео кодек: AVC
Аудио кодек: AC3
Видео: 1920x1080 (16:9), 25.000 fps, 13.1 Mbps, 0.253 bit/pixel
Аудио: AC3 384 Kbps, 2 channels

Скриншот с названием фильма

Скриншоты


MI

GeneralID : 1 (0x1)Complete name : D:\Выкладка\Настоящая любовь (2012, Комедия, Мелодрама, HDTV 1080i) (MYDIMKA).tsFormat : MPEG-TSFile size : 9.31 GiBDuration : 1h 33mnOverall bit rate mode : VariableOverall bit rate : 14.2 Mbps
VideoID : 69 (0x45)Menu ID : 1 (0x1)Format : AVCFormat/Info : Advanced Video CodecFormat profile : High@L4.0Format settings, CABAC : YesFormat settings, ReFrames : 3 framesCodec ID : 27Duration : 1h 33mnBit rate : 13.1 MbpsWidth : 1 920 pixelsHeight : 1 080 pixelsDisplay aspect ratio : 16:9Frame rate : 25.000 fpsStandard : ComponentColor space : YUVChroma subsampling : 4:2:0Bit depth : 8 bitsScan type : InterlacedScan order : Top Field FirstBits/(Pixel*Frame) : 0.253Stream size : 8.60 GiB (92%)Color primaries : BT.709Transfer characteristics : BT.709Matrix coefficients : BT.709
AudioID : 68 (0x44)Menu ID : 1 (0x1)Format : AC-3Format/Info : Audio Coding 3Mode extension : CM (complete main)Format settings, Endianness : BigCodec ID : 129Duration : 1h 33mnBit rate mode : ConstantBit rate : 384 KbpsChannel(s) : 2 channelsChannel positions : Front: L RSampling rate : 48.0 KHzBit depth : 16 bitsCompression mode : LossyStream size : 257 MiB (3%)Language : English
Скачать

Скачать торрент!

Как скачивать? · Что такое торрент? · Рейтинг и ограничения

Сайт не распространяет и не хранит электронные версии произведений, а лишь предоставляет доступ к создаваемому пользователями каталогу ссылок на торрент-файлы, которые содержат только списки хеш-сумм

[Профиль] [ЛС]
Показать сообщения:    
Ответить на тему

Текущее время: Сегодня 09:58

Часовой пояс: GMT + 4



Вы не можете начинать темы
Вы не можете отвечать на сообщения
Вы не можете редактировать свои сообщения
Вы не можете удалять свои сообщения
Вы не можете голосовать в опросах
Вы не можете прикреплять файлы к сообщениям
Вы не можете скачивать файлы