Жизнь после жизни / Жизнь взаймы (Александр Будённый) [2013, криминальная мелодрама, HDTV 1080i]

Ответить на тему
 
Автор Сообщение

user ®

Стаж: 7 лет 7 месяцев

Сообщений: 20008

Пост Пост: #1 от 23-Июл-2013 22:46

[Цитировать]

Жизнь после жизни / Жизнь взаймы
Страна: Россия, Украина
Жанр: криминальная мелодрама
Год выпуска: 2013
Продолжительность: 01:30:07
Режиссёр: Александр Будённый
В ролях: Юлия Маврина, Эвклид Кюрдзидис, Антон Пампушный, Юрий Назаров, Алёна Колесниченко, Сергей Сипливый, Ирина Мельник, Мирослав Белоногий, Александр Крыжановский, Марина Ягодкина, Константин Данилюк, Ашот Арушанов, Анна Левченко, Андрей Титов, Галина Корнеева, Дарья Орехова, Екатерина Гулякова, Елена Хижная, Инна Капинос, Людмила Шпиталева, Надежда Костюк, Оксана Коляденко, Олег Роенко
Описание: Отчаявшись обрести счастье рядом с любимым человеком Дмитрием, который является ее начальником и много старше по возрасту, журналистка Маша принимает ухаживания Юрия Козакова. Мужчина богат, красив, внимателен, благороден. Но вскоре после скоропалительного замужества Маша начинает замечать странности в поведении и образе жизни мужа. Когда муж уезжает в командировки, Маша постоянно слышит чьи-то шаги в своем доме, видит мелькающую тень в саду. Вскоре девушка узнаёт страшную тайну, подвергая свою жизнь смертельной опасности...
Доп. информация:
Огромное спасибо posters-ks за предоставленный постер.
Релиз от:
Семпл
Качество видео: HDTV (1080i)
Формат видео: MPEG-TS
Видео: MPEG4 AVC, 1920х1080 (16:9), 25 fps, 7051 Kbps, 0.136 bit/pixel
Аудио: MPEG Audio, 48 kHz, stereo, 192 kbps

MediaInfo

ID : 1 (0x1)
Complete name : Zhizn.posle.zhizni.2013.HDTV.Files-x.ts
Format : MPEG-TS
File size : 4.80 GiB
Duration : 1h 30mn
Overall bit rate mode : Variable
Overall bit rate : 7 621 Kbps
Video
ID : 68 (0x44)
Menu ID : 1 (0x1)
Format : AVC
Format/Info : Advanced Video Codec
Format profile : Main@L4.0
Format settings, CABAC : Yes
Format settings, ReFrames : 4 frames
Format settings, GOP : M=4, N=32
Codec ID : 27
Duration : 1h 30mn
Bit rate : 7 051 Kbps
Width : 1 920 pixels
Height : 1 080 pixels
Display aspect ratio : 16:9
Frame rate : 25.000 fps
Standard : Component
Color space : YUV
Chroma subsampling : 4:2:0
Bit depth : 8 bits
Scan type : Interlaced
Scan order : Top Field First
Bits/(Pixel*Frame) : 0.136
Stream size : 4.44 GiB (93%)
Color primaries : BT.709
Transfer characteristics : BT.709
Matrix coefficients : BT.709
Audio
ID : 69 (0x45)
Menu ID : 1 (0x1)
Format : MPEG Audio
Format version : Version 1
Format profile : Layer 2
Codec ID : 3
Duration : 1h 30mn
Bit rate mode : Constant
Bit rate : 192 Kbps
Channel(s) : 2 channels
Sampling rate : 48.0 KHz
Compression mode : Lossy
Stream size : 124 MiB (3%)
Language : Russian

Скриншот c названием фильма

Скриншоты

Скачать

Скачать торрент!

Как скачивать? · Что такое торрент? · Рейтинг и ограничения

Сайт не распространяет и не хранит электронные версии произведений, а лишь предоставляет доступ к создаваемому пользователями каталогу ссылок на торрент-файлы, которые содержат только списки хеш-сумм

[Профиль] [ЛС]
Показать сообщения:    
Ответить на тему

Текущее время: Сегодня 18:25

Часовой пояс: GMT + 4



Вы не можете начинать темы
Вы не можете отвечать на сообщения
Вы не можете редактировать свои сообщения
Вы не можете удалять свои сообщения
Вы не можете голосовать в опросах
Вы не можете прикреплять файлы к сообщениям
Вы не можете скачивать файлы