Ночной рейс / Red Eye (Уэс Крейвен / Wes Craven) [2005, США, триллер, WEB-DL 720p] Dub+ 2x DVO + AVO (А. Карповский) + Original Eng + Sub (Rus, Eng)

Ответить на тему
 
Автор Сообщение

user ®

Стаж: 7 лет 7 месяцев

Сообщений: 20008

Пост Пост: #1 от 23-Июл-2013 18:10

[Цитировать]

Ночной рейс / Red Eye-Страна: США
Жанр: триллер
Год выпуска: 2005
Продолжительность: 01:25:24
Перевод#1: Профессиональный (полное дублирование)
Перевод#2: Профессиональный (двухголосый, закадровый) Супербит / Гланц и Королёва
Перевод#3: Профессиональный (двухголосый, закадровый) Tycoon
Перевод#4: Авторский (одноголосый, закадровый) Антон Карповский
Cубтитры: русские, английские
Оригинальная аудиодорожка: английская-Режиссер: Уэс Крэйвен / Wes Craven
В ролях: Рэйчел МакАдамс, Силлиан Мерфи, Брайан Кокс, Тина Андерсон, Кайл Гэллнер, Эмбер Мид, Бриттани Оакс, Том Элкинс, Джэйма Мэйс-Описание: Два незнакомых человека. Случайная встреча в аэропорту. Взаимная симпатия… А в итоге, сегодня рейс 1019 прибудет вовремя, но, возможно, без одного пассажира. Лиза Райсерт всегда боялась летать, но страх перед авиаполетом — это ничто по сравнению с тем, что ей предстоит пережить...
Качество видео: WEB-DL 720p
Формат видео: MKV
Видео: 1280x532 at 23.976 fps, MPEG-4 AVC, ~4000 kbps avg
Аудио #1: Russian 48 kHz, AC3 Dolby Digital, 3/2 (L,C,R,l,r) + LFE ch, ~384 kbps |Дубляж|
Аудио #2: Russian 48 kHz, DTS, 3/2 (L,C,R,l,r) + LFE ch, ~768 kbps |Двухголосый, Супербит / Гланц и Королёва|
Аудио #3: Russian 48 kHz, AC3 Dolby Digital, 3/2 (L,C,R,l,r) + LFE ch, ~448 kbps |Двухголосый, TYCOON|
Аудио #4: Russian 48 kHz, AC3 Dolby Digital, 3/2 (L,C,R,l,r) + LFE ch, ~384 kbps |Авторский, Антон Карповский|
Аудио #5: English 48 kHz, AC3 Dolby Digital, 3/2 (L,C,R,l,r) + LFE ch, ~448 kbps
Аудио #6: English 48 kHz, AC3 Dolby Digital, 2 (L,R) ch, ~192 kbps |Комментарии|
Скачать: Сэмпл

Скриншоты

MI

Complete name                            : D:\Red.Eye.2005.720p.WEB-DL.Rus.Eng.INGLIDE.mkv
Format                                   : Matroska
Format version                           : Version 4 / Version 2
File size                                : 3.99 GiB
Duration                                 : 1h 25mn
Overall bit rate                         : 6 686 Kbps
Encoded date                             : UTC 2013-07-17 17:27:31
Writing application                      : mkvmerge v6.2.0 ('Promised Land') built on Apr 28 2013 12:22:01
Writing library                          : libebml v1.3.0 + libmatroska v1.4.0
Video
ID                                       : 1
Format                                   : AVC
Format/Info                              : Advanced Video Codec
Format profile                           : Main@L3.1
Format settings, CABAC                   : No
Format settings, ReFrames                : 2 frames
Format settings, GOP                     : N=1
Codec ID                                 : V_MPEG4/ISO/AVC
Duration                                 : 1h 25mn
Bit rate                                 : 3 942 Kbps
Width                                    : 1 280 pixels
Height                                   : 532 pixels
Display aspect ratio                     : 2.40:1
Frame rate                               : 23.976 fps
Color space                              : YUV
Chroma subsampling                       : 4:2:0
Bit depth                                : 8 bits
Scan type                                : Progressive
Bits/(Pixel*Frame)                       : 0.241
Stream size                              : 2.35 GiB (59%)
Language                                 : English
Default                                  : Yes
Forced                                   : No
Color primaries                          : BT.709-5, BT.1361, IEC 61966-2-4, SMPTE RP177
Transfer characteristics                 : BT.709-5, BT.1361
Matrix coefficients                      : BT.709-5, BT.1361, IEC 61966-2-4 709, SMPTE RP177
Audio #1
ID                                       : 2
Format                                   : AC-3
Format/Info                              : Audio Coding 3
Mode extension                           : CM (complete main)
Codec ID                                 : A_AC3
Duration                                 : 1h 25mn
Bit rate mode                            : Constant
Bit rate                                 : 384 Kbps
Channel(s)                               : 6 channels
Channel positions                        : Front: L C R, Side: L R, LFE
Sampling rate                            : 48.0 KHz
Bit depth                                : 16 bits
Compression mode                         : Lossy
Stream size                              : 235 MiB (6%)
Title                                    : DUB
Language                                 : Russian
Default                                  : Yes
Forced                                   : No
Audio #2
ID                                       : 3
Format                                   : DTS
Format/Info                              : Digital Theater Systems
Codec ID                                 : A_DTS
Duration                                 : 1h 25mn
Bit rate mode                            : Constant
Bit rate                                 : 755 Kbps
Channel(s)                               : 6 channels
Channel positions                        : Front: L C R, Side: L R, LFE
Sampling rate                            : 48.0 KHz
Bit depth                                : 24 bits
Compression mode                         : Lossy
Stream size                              : 461 MiB (11%)
Title                                    : SUPERBIT
Language                                 : Russian
Default                                  : No
Forced                                   : No
Audio #3
ID                                       : 4
Format                                   : AC-3
Format/Info                              : Audio Coding 3
Mode extension                           : CM (complete main)
Codec ID                                 : A_AC3
Duration                                 : 1h 25mn
Bit rate mode                            : Constant
Bit rate                                 : 448 Kbps
Channel(s)                               : 6 channels
Channel positions                        : Front: L C R, Side: L R, LFE
Sampling rate                            : 48.0 KHz
Bit depth                                : 16 bits
Compression mode                         : Lossy
Stream size                              : 274 MiB (7%)
Title                                    : TYCOON
Language                                 : Russian
Default                                  : No
Forced                                   : No
Audio #4
ID                                       : 5
Format                                   : AC-3
Format/Info                              : Audio Coding 3
Mode extension                           : CM (complete main)
Codec ID                                 : A_AC3
Duration                                 : 1h 25mn
Bit rate mode                            : Constant
Bit rate                                 : 384 Kbps
Channel(s)                               : 6 channels
Channel positions                        : Front: L C R, Side: L R, LFE
Sampling rate                            : 48.0 KHz
Bit depth                                : 16 bits
Compression mode                         : Lossy
Stream size                              : 235 MiB (6%)
Title                                    : KARPOVSKY
Language                                 : Russian
Default                                  : No
Forced                                   : No
Audio #5
ID                                       : 6
Format                                   : AC-3
Format/Info                              : Audio Coding 3
Mode extension                           : CM (complete main)
Codec ID                                 : A_AC3
Duration                                 : 1h 25mn
Bit rate mode                            : Constant
Bit rate                                 : 448 Kbps
Channel(s)                               : 6 channels
Channel positions                        : Front: L C R, Side: L R, LFE
Sampling rate                            : 48.0 KHz
Bit depth                                : 16 bits
Compression mode                         : Lossy
Stream size                              : 274 MiB (7%)
Language                                 : English
Default                                  : No
Forced                                   : No
Audio #6
ID                                       : 7
Format                                   : AC-3
Format/Info                              : Audio Coding 3
Mode extension                           : CM (complete main)
Codec ID                                 : A_AC3
Duration                                 : 1h 25mn
Bit rate mode                            : Constant
Bit rate                                 : 192 Kbps
Channel(s)                               : 2 channels
Channel positions                        : Front: L R
Sampling rate                            : 48.0 KHz
Bit depth                                : 16 bits
Compression mode                         : Lossy
Stream size                              : 117 MiB (3%)
Title                                    : Comments
Language                                 : English
Default                                  : No
Forced                                   : No
Text #1
ID                                       : 8
Format                                   : UTF-8
Codec ID                                 : S_TEXT/UTF8
Codec ID/Info                            : UTF-8 Plain Text
Language                                 : Russian
Default                                  : No
Forced                                   : No
Text #2
ID                                       : 9
Format                                   : UTF-8
Codec ID                                 : S_TEXT/UTF8
Codec ID/Info                            : UTF-8 Plain Text
Language                                 : English
Default                                  : No
Forced                                   : No
Menu
00:00:00.000                             : en:1. A Rough Morning
00:06:32.000                             : en:2. Flight Delayed
00:15:53.000                             : en:3. Now Boarding
00:19:41.000                             : en:4. "Management"
00:26:26.000                             : en:5. "Rough Day"
00:30:13.000                             : en:6. Calling Dad
00:37:51.000                             : en:7. Being Watched
00:42:34.000                             : en:8. "One of Those Flights"
00:46:51.000                             : en:9. The Fatal Call
00:50:26.000                             : en:10. Keefe's Arrival
00:55:18.000                             : en:11. "Welcome to Miami"
01:00:30.000                             : en:12. Keefe's a Target!
01:04:15.000                             : en:13. Not In My House
01:08:27.000                             : en:14. Finishing the Job
01:15:10.000                             : en:15. Comment Card
01:16:50.000                             : en:16. End Credits
Скачать

Скачать торрент!

Как скачивать? · Что такое торрент? · Рейтинг и ограничения

Сайт не распространяет и не хранит электронные версии произведений, а лишь предоставляет доступ к создаваемому пользователями каталогу ссылок на торрент-файлы, которые содержат только списки хеш-сумм

[Профиль] [ЛС]
Показать сообщения:    
Ответить на тему

Текущее время: Сегодня 20:15

Часовой пояс: GMT + 4



Вы не можете начинать темы
Вы не можете отвечать на сообщения
Вы не можете редактировать свои сообщения
Вы не можете удалять свои сообщения
Вы не можете голосовать в опросах
Вы не можете прикреплять файлы к сообщениям
Вы не можете скачивать файлы