Во имя справедливости / Out For Justice (Джон Флинн / John Flynn) [1991, США, боевик, триллер, криминал, BDRip 720p] 2х Dub (Мост-Видео, Варус Видео) + DVO + MVO + 4х AVO (Пучков, Михалев, Гаврилов, Живов) + Sub Rus, Eng + Original Eng + 3х Ukr

Ответить на тему
 
Автор Сообщение

user ®

Стаж: 7 лет 7 месяцев

Сообщений: 20008

Пост Пост: #1 от 23-Июл-2013 18:10

[Цитировать]

Во имя справедливости / Out For Justice
Страна: США
Жанр: боевик, триллер, криминал
Год выпуска: 1991
Продолжительность: 01:31:24
Перевод 1: Профессиональный (дублированный) Мост-Видео
Перевод 2: Профессиональный (дублированный) Варус Видео
Перевод 3: Профессиональный (двухголосый закадровый) НТВ
Перевод 4: Профессиональный (многоголосый закадровый) Россия
Перевод 5: Авторский (одноголосый закадровый) Д. Пучков
Перевод 6: Авторский (одноголосый закадровый) А. Михалёв
Перевод 7: Авторский (одноголосый закадровый) А. Гаврилов
Перевод 8: Авторский (одноголосый закадровый) Ю. Живов
Cубтитры: Russian, English
Оригинальная аудиодорожка: английский
Режиссер: Джон Флинн / John Flynn
В ролях: Стивен Сигал, Уильям Форсайт, Джерри Орбак, Джо Чампа, Шэрин Митчелл, Сэл Ричардс, Джина Гершон, Джей Аковоне, Ник Корелло, Роберт ЛаСардо
Описание: Место действия — Бруклин, время — наши дни. Полицейский Джино Фелино родился и вырос здесь. На его веку многое изменилось, но некоторые перемены он признавать не собирается. Товарищ по детским играм теперь — на другой стороне. Он превратил местные улицы в зоны боевых действий.
Сильнее всего на свете Джино желал бы отправить этого сорвавшегося с цепи пса в школу вечного послушания. Но сначала его нужно поймать
РАЗДАЧА ОТ:
Сэмпл
Тип релиза: BDRip 720p
Контейнер: MKV
Видео: 1280x534 at 23.976 fps, x264@L4.1, 2pass, ~5000 Kbps avg
Аудио#1: Russian: 48 kHz, AC3, 3/2 (L,C,R,l,r) + LFE ch, ~384.00 kbps avg |Дубляж, Мост-Видео|
Аудио#2: Russian: 48 kHz, AC3, 2/0 (L,R) ch, ~224.00 kbps avg |Дубляж, Варус Видео|
Аудио#3: Russian: 48 kHz, AC3, 2/0 (L,R) ch, ~192.00 kbps avg |Двухголосый закадровый, НТВ|
Аудио#4: Russian: 48 kHz, AC3, 2/0 (L,R) ch, ~192.00 kbps avg |Многоголосый закадровый, Россия|
Аудио#5: Russian: 48 kHz, AC3, 3/2 (L,C,R,l,r) + LFE ch, ~640.00 kbps avg |Одноголосый закадровый, Д. Пучков|
Аудио#6: Russian: 48 kHz, AC3, 2/0 (L,R) ch, ~192.00 kbps avg |Одноголосый закадровый, А. Михалёв|
Аудио#7: Russian: 48 kHz, AC3, 3/2 (L,C,R,l,r) + LFE ch, ~384.00 kbps avg |Одноголосый закадровый, А. Гаврилов|
Аудио#8: Russian: 48 kHz, AC3, 2/0 (L,R) ch, ~192.00 kbps avg |Одноголосый закадровый, Ю. Живов|
Аудио#9: Ukrainian: 48 kHz, AC3, 2/0 (L,R) ch, ~192.00 kbps avg |Двухголосый закадровый, 1+1|
Аудио#10: Ukrainian: 48 kHz, AC3, 2/0 (L,R) ch, ~192.00 kbps avg |Многоголосый закадровый, ICTV|
Аудио#11: Ukrainian: 48 kHz, AC3, 2/0 (L,R) ch, ~192.00 kbps avg |Многоголосый закадровый, Интер|
Аудио#12: English: 48 kHz, AC3, 3/2 (L,C,R,l,r) + LFE ch, ~640.00 kbps avg

MediaInfo

General
Complete name : C:\фильмы\Out.for.Justice.1991.720p.BluRay.8xRus.3xUkr.Eng.HDCLUB-Skazhutin.mkv
Format : Matroska
File size : 5.50 GiB
Duration : 1h 31mn
Overall bit rate : 8 618 Kbps
Movie name : Out for Justice (1991) - Release for HDCLUB by Skazhutin
Encoded date : UTC 2013-04-07 04:30:19
Writing application : mkvmerge v6.1.0 ('Old Devil') built on Mar 2 2013 14:32:37
Writing library : libebml v1.3.0 + libmatroska v1.4.0
Cover : Yes / Yes
Video
ID : 1
Format : AVC
Format/Info : Advanced Video Codec
Format profile : High@L4.1
Format settings, CABAC : Yes
Format settings, ReFrames : 12 frames
Muxing mode : Container profile=Unknown@4.1
Codec ID : V_MPEG4/ISO/AVC
Duration : 1h 31mn
Bit rate : 4 830 Kbps
Nominal bit rate : 5 000 Kbps
Width : 1 280 pixels
Height : 534 pixels
Display aspect ratio : 2.35:1
Frame rate : 23.976 fps
Resolution : 8 bits
Colorimetry : 4:2:0
Scan type : Progressive
Bits/(Pixel*Frame) : 0.295
Stream size : 3.08 GiB (56%)
Title : Release for HDCLUB
Writing library : x264 core 130 r2273kMod b3065e6
Encoding settings : cabac=1 / ref=12 / deblock=1:-3:-3 / analyse=0x3:0x113 / me=umh / subme=11 / psy=1 / fade_compensate=0.00 / psy_rd=0.95:0.00 / mixed_ref=1 / me_range=48 / chroma_me=1 / trellis=2 / 8x8dct=1 / cqm=0 / deadzone=21,11 / fast_pskip=0 / chroma_qp_offset=-2 / threads=12 / lookahead_threads=3 / sliced_threads=0 / nr=0 / decimate=0 / interlaced=0 / bluray_compat=0 / constrained_intra=0 / bframes=12 / b_pyramid=2 / b_adapt=2 / b_bias=0 / direct=3 / weightb=1 / open_gop=0 / weightp=2 / keyint=250 / keyint_min=23 / scenecut=40 / intra_refresh=0 / rc_lookahead=40 / rc=2pass / mbtree=0 / bitrate=5000 / ratetol=1.0 / qcomp=0.75 / qpmin=0 / qpmax=69 / qpstep=4 / cplxblur=20.0 / qblur=0.5 / vbv_maxrate=50000 / vbv_bufsize=62500 / nal_hrd=none / ip_ratio=1.30 / pb_ratio=1.20 / aq=1:0.70
Matrix coefficients : BT.709-5, BT.1361, IEC 61966-2-4 709, SMPTE RP177
Audio #1
ID : 2
Format : AC-3
Format/Info : Audio Coding 3
Codec ID : A_AC3
Duration : 1h 31mn
Bit rate mode : Constant
Bit rate : 384 Kbps
Channel(s) : 6 channels
Channel positions : Front: L C R, Side: L R, LFE
Sampling rate : 48.0 KHz
Stream size : 251 MiB (4%)
Title : AC3 5.1 @ 384 kbps - Dub, Most video
Language : Russian
Audio #2
ID : 3
Format : AC-3
Format/Info : Audio Coding 3
Codec ID : A_AC3
Duration : 1h 31mn
Bit rate mode : Constant
Bit rate : 224 Kbps
Channel(s) : 2 channels
Channel positions : Front: L R
Sampling rate : 48.0 KHz
Stream size : 146 MiB (3%)
Title : AC3 2.0 @ 224 kbps - Dub, Varus video
Language : Russian
Audio #3
ID : 4
Format : AC-3
Format/Info : Audio Coding 3
Format profile : Dolby Digital
Codec ID : A_AC3
Duration : 1h 31mn
Bit rate mode : Constant
Bit rate : 192 Kbps
Channel(s) : 2 channels
Channel positions : Front: L R
Sampling rate : 48.0 KHz
Video delay : 15ms
Stream size : 126 MiB (2%)
Title : AC3 2.0 @ 192 kbps - DVO, NTV
Language : Russian
Audio #4
ID : 5
Format : AC-3
Format/Info : Audio Coding 3
Codec ID : A_AC3
Duration : 1h 31mn
Bit rate mode : Constant
Bit rate : 192 Kbps
Channel(s) : 2 channels
Channel positions : Front: L R
Sampling rate : 48.0 KHz
Video delay : 24ms
Stream size : 126 MiB (2%)
Title : AC3 2.0 @ 192 kbps - MVO, Rossia
Language : Russian
Audio #5
ID : 6
Format : AC-3
Format/Info : Audio Coding 3
Codec ID : A_AC3
Duration : 1h 31mn
Bit rate mode : Constant
Bit rate : 640 Kbps
Channel(s) : 6 channels
Channel positions : Front: L C R, Side: L R, LFE
Sampling rate : 48.0 KHz
Stream size : 418 MiB (7%)
Title : AC3 5.1 @ 640 kbps - VO, Puchkov
Language : Russian
Audio #6
ID : 7
Format : AC-3
Format/Info : Audio Coding 3
Codec ID : A_AC3
Duration : 1h 31mn
Bit rate mode : Constant
Bit rate : 192 Kbps
Channel(s) : 2 channels
Channel positions : Front: L R
Sampling rate : 48.0 KHz
Stream size : 126 MiB (2%)
Title : AC3 2.0 @ 192 kbps - VO, Mihalev
Language : Russian
Audio #7
ID : 8
Format : AC-3
Format/Info : Audio Coding 3
Codec ID : A_AC3
Duration : 1h 31mn
Bit rate mode : Constant
Bit rate : 384 Kbps
Channel(s) : 6 channels
Channel positions : Front: L C R, Side: L R, LFE
Sampling rate : 48.0 KHz
Video delay : 8ms
Stream size : 251 MiB (4%)
Title : AC3 5.1 @ 384 kbps - VO, Gavrilov
Language : Russian
Audio #8
ID : 9
Format : AC-3
Format/Info : Audio Coding 3
Codec ID : A_AC3
Duration : 1h 31mn
Bit rate mode : Constant
Bit rate : 192 Kbps
Channel(s) : 2 channels
Channel positions : Front: L R
Sampling rate : 48.0 KHz
Stream size : 126 MiB (2%)
Title : AC3 2.0 @ 192 kbps - VO, Jivov
Language : Russian
Audio #9
ID : 10
Format : AC-3
Format/Info : Audio Coding 3
Codec ID : A_AC3
Duration : 1h 31mn
Bit rate mode : Constant
Bit rate : 192 Kbps
Channel(s) : 2 channels
Channel positions : Front: L R
Sampling rate : 48.0 KHz
Stream size : 126 MiB (2%)
Title : AC3 2.0 @ 192 kbps - DVO, 1+1
Language : Ukrainian
Audio #10
ID : 11
Format : AC-3
Format/Info : Audio Coding 3
Codec ID : A_AC3
Duration : 1h 31mn
Bit rate mode : Constant
Bit rate : 192 Kbps
Channel(s) : 2 channels
Channel positions : Front: L R
Sampling rate : 48.0 KHz
Video delay : 22ms
Stream size : 126 MiB (2%)
Title : AC3 2.0 @ 192 kbps - MVO, ICTV
Language : Ukrainian
Audio #11
ID : 12
Format : AC-3
Format/Info : Audio Coding 3
Codec ID : A_AC3
Duration : 1h 31mn
Bit rate mode : Constant
Bit rate : 192 Kbps
Channel(s) : 2 channels
Channel positions : Front: L R
Sampling rate : 48.0 KHz
Stream size : 126 MiB (2%)
Title : AC3 2.0 @ 192 kbps - MVO, INTER
Language : Ukrainian
Audio #12
ID : 13
Format : AC-3
Format/Info : Audio Coding 3
Codec ID : A_AC3
Duration : 1h 31mn
Bit rate mode : Constant
Bit rate : 640 Kbps
Channel(s) : 6 channels
Channel positions : Front: L C R, Side: L R, LFE
Sampling rate : 48.0 KHz
Stream size : 418 MiB (7%)
Title : AC3 5.1 @ 640 kbps
Text #1
ID : 14
Format : UTF-8
Codec ID : S_TEXT/UTF8
Codec ID/Info : UTF-8 Plain Text
Language : Russian
Text #2
ID : 15
Format : UTF-8
Codec ID : S_TEXT/UTF8
Codec ID/Info : UTF-8 Plain Text
Menu
00:00:00.000 : en:A Pimp's Comeuppance
00:03:39.802 : en:Tonight's Plans
00:07:18.020 : en:An Unmarked and a Shotgun
00:12:15.484 : en:The Mob Gets Mad
00:15:41.231 : en:Surprise Package (No Sleep Till Brooklyn)
00:19:04.017 : en:Hot Pursuit
00:21:40.716 : en:The Butcher Shop
00:24:09.823 : en:Buying Dog Food
00:27:15.550 : en:Mr. and Mrs. Madano
00:29:59.923 : en:Rica Says Yes
00:31:42.650 : en:Gino Plays Pool
00:38:11.122 : en:Neighborhood Montage (Shake the Firm)
00:41:41.040 : en:Breaking with Don Vittorio
00:45:00.656 : en:Patti's Place
00:51:23.121 : en:Chop-Shop Carnage
00:55:31.453 : en:A Truer Picture
00:56:48.321 : en:Memories with Vicky
01:02:18.484 : en:Gino's Place Under Siege
01:05:32.094 : en:More From Terry Malloy
01:08:03.621 : en:Poolroom Massacre
01:11:07.888 : en:"Ain't Pretty"
01:13:42.418 : en:Richie's Going-Away Party
01:17:30.145 : en:Gino Storms the House
01:22:31.196 : en:The Final Battle
01:25:35.130 : en:The "Animal-Lover's" Comeuppance
01:27:00.256 : en:End Credits (Don't Stand in My Way)

Скриншоты

Скачать

Скачать торрент!

Как скачивать? · Что такое торрент? · Рейтинг и ограничения

Сайт не распространяет и не хранит электронные версии произведений, а лишь предоставляет доступ к создаваемому пользователями каталогу ссылок на торрент-файлы, которые содержат только списки хеш-сумм

[Профиль] [ЛС]
Показать сообщения:    
Ответить на тему

Текущее время: Сегодня 01:45

Часовой пояс: GMT + 4



Вы не можете начинать темы
Вы не можете отвечать на сообщения
Вы не можете редактировать свои сообщения
Вы не можете удалять свои сообщения
Вы не можете голосовать в опросах
Вы не можете прикреплять файлы к сообщениям
Вы не можете скачивать файлы