Дети Полуночи / Midnights Children ( Дипа Мехта / Deepa Mehta ) [2013, Индия, Великобритания, Драма, BDRip] Sub Rus

Ответить на тему
 
Автор Сообщение

user ®

Стаж: 12 лет

Сообщений: 15125

Пост Пост: #1 от 23-Июл-2013 15:00

[Цитировать]

Дети Полуночи / Midnights Children
Страна: Индия, Великобритания
Жанр: Драма
Год выпуска: 2013
Продолжительность: 02:25:34
Перевод: Субтитры
Cубтитры: русские
Оригинальная аудиодорожка: Хинди, Английский
Режиссер: Дипа Мехта / Deepa Mehta
В ролях: Сатья Баба, Шахана Госвами, Раджат Капур, Шабана Азми, Ронит Рой, Сидхартх Нараян, Сима Бисвас, Шрия Саран, Чарлз Денс, Кулбушан Кхарбанда, Даршил Сафари, Анита Маджумдар, Шикха Талсания, Рахул Босе, Заиб Шейкх, Самрат Чакраборти, Соха Али Кхан, Анупам Кхер, Чандан Рой Саньял, Суреш Менон
Описание: 14 августа 1947 года, ровно в полночь, когда Индия объявила всему миру о своей независимости, в семье успешного бизнесмена Ахмеда Синая родился малыш. Одновременно с ним по всей Индии родилось еще около тысячи детей. Все они, подрастая, обнаруживали в себе какие-то чудесные способности. Кто-то умел летать, кто-то – меняться в размерах, кто-то – становиться невидимым, кто-то – виртуозно драться... Салим Синай при помощи телепатии научился собирать вокруг себя души всех этих «детей индиго». Но рожденным в столь сложный для страны период детям пришлось пережить немало тяжелых моментов, а тяжелее всего оказалось адаптироваться в этом мире со своими способностями.
Доп. информация: Фильм "Дети полуночи" снят по одноименному роману Салмана Рушди, завоевавшему Букеровскую премию и Приз памяти Джеймса Тэйта-Блэка в 1981 году, Букера Букеров - на 25-й годовщине Букеровской премии (1993) и Лучшего Букера - на 40-й (2008); попавшему в "Список 200 лучших книг по версии БиБиСи" (2003) и в список "Величайшие книги ХХ века" по версии "Пенгуин букс".
Фильм был показан на Международном кинофестивале в Торонто, Международном кинофестивале в Ванкувере и на Лондонском кинофестивале; номинировался в категориях Лучшая Картина и еще семи на Канадском вручении кинонаград 2013.
IMDb
Сэмпл / Sample
Перевод и редакция:jyoti
Риппер:randy23

Релиз-группа:
Качество видео: BDRip
Формат видео: AVI
Видео: XviD, 720х304, 23.976 fps, 1197kbps
Аудио: AC3, 48 kHz, 5.1 (6 ch), 224 kbps
Формат субтитров: hardsub (неотключаемые)

MediaInfo

Общее
Полное имя : F:\Movies\BWT\Vremeno\Dety.Polunocy.2013.BDRip.XviD.BwTorrents.avi
Формат : AVI
Формат/Информация : Audio Video Interleave
Размер файла : 1,45 Гбайт
Продолжительность : 2 ч. 25 м.
Общий поток : 1431 Кбит/сек
Программа кодирования : VirtualDubMod 1.5.10.3 | www.virtualdub-fr.org || (build 2550/release)
Библиотека кодирования : VirtualDubMod build 2550/release
Видео
Идентификатор : 0
Формат : MPEG-4 Visual
Профиль формата : Advanced Simple@L5
Параметр BVOP формата : 2
Параметр QPel формата : Нет
Параметр GMC формата : Без точки перехода
Параметр матрицы формата : Default (MPEG)
Идентификатор кодека : XVID
Идентификатор кодека/Подсказка : XviD
Продолжительность : 2 ч. 25 м.
Битрейт : 1197 Кбит/сек
Ширина : 720 пикселей
Высота : 304 пикселя
Соотношение сторон : 2,35:1
Частота кадров : 23,976 кадра/сек
Цветовое пространство : YUV
Субдискретизация насыщенности : 4:2:0
Битовая глубина : 8 бит
Тип развёртки : Прогрессивная
Метод сжатия : С потерями
Бит/(Пиксели*Кадры) : 0.228
Размер потока : 1,22 Гбайт (84%)
Библиотека кодирования : XviD 63
Аудио
Идентификатор : 1
Формат : AC-3
Формат/Информация : Audio Coding 3
Расширение режима : CM (complete main)
Параметр Endianness формата : Big
Идентификатор кодека : 2000
Продолжительность : 2 ч. 25 м.
Вид битрейта : Постоянный
Битрейт : 224 Кбит/сек
Каналы : 6 каналов
Расположение каналов : Front: L C R, Side: L R, LFE
Частота : 48,0 КГц
Битовая глубина : 16 бит
Метод сжатия : С потерями
Размер потока : 233 Мбайт (16%)
Выравнивание : Разделение по промежуткам
Продолжительность промежутка : 42 мс. (1,00 видеокадр)
Время предзагрузки промежутка : 500 мс.

Скриншот c названием фильма

Скачать

Скачать торрент! Дети Полуночи / Midnights Children ( Дипа Мехта / Deepa Mehta ) [2013, Индия, Великобритания, Драма, BDRip] Sub Rus

Как скачивать? · Что такое торрент? · Рейтинг и ограничения

Сайт не распространяет и не хранит электронные версии произведений, а лишь предоставляет доступ к создаваемому пользователями каталогу ссылок на торрент-файлы, которые содержат только списки хеш-сумм

[Профиль] [ЛС]
Показать сообщения:    
Ответить на тему

Текущее время: Сегодня 00:04

Часовой пояс: GMT + 4



Вы не можете начинать темы
Вы не можете отвечать на сообщения
Вы не можете редактировать свои сообщения
Вы не можете удалять свои сообщения
Вы не можете голосовать в опросах
Вы не можете прикреплять файлы к сообщениям
Вы не можете скачивать файлы