Вечеринка братства / Последняя вечеринка/ Братская вечеринка / Frat Party (Роберт Беннетт / Robert Bennett) [2009, США, комедия, BDRip 720p] [UNRATED] DVO (студия Elrom) + Original Eng

Ответить на тему
 
Автор Сообщение

user ®

Стаж: 7 лет 7 месяцев

Сообщений: 20008

Пост Пост: #1 от 23-Июл-2013 15:00

[Цитировать]

Вечеринка братства / Последняя вечеринка / Братская вечеринка/ Frat Party [UNRATED]
Страна: США
Жанр: комедия
Год выпуска: 2009
Продолжительность: 01:24:57
Перевод: Профессиональный (двухголосый закадровый) [студия Elrom]
Cубтитры: нет
Оригинальная аудиодорожка: английский
Режиссер: Роберт Беннетт / Robert Bennett
В ролях: Рэнди Вейн, Кэролайн Д’Амор, Джареб Доплес, Лоурен С. Мэйхью, Дэн Леви, Катерина Микайленко, Алисия Циглер, Карл Бресслер, Сара Карджис
Описание: Даффи самый сексуально озабоченный студент университета и все особи женского пола норовят с ним переспать. Но времечко быстро пролетело, пришла пора распрощаться с университетом и начать новую жизнь. Как положено во всех братствах, учёбу нужно заканчивать счастливым хэппи-эндом, то есть шикарной вечеринкой, которая запомнится на всю последующую жизнь. Но как быть, когда твоя подруга наметила свадьбу на следующий день, а её папашка не хочет чтобы она вышла за такого оболтуса?
Сэмпл: http://multi-up.com/886598
Тип релиза: BDRip 720p
Контейнер: MKV
Видео: 1280*720, 4019 Кбит/сек, 23,976 кадра/сек
Аудио: AC-3, 192 Кбит/сек, 2Ch, 48,0 КГц-русский
Аудио 2: DTS, 1509 Кбит/сек, 6Ch, 48,0 КГц-английский

MediaInfo

Общее
Уникальный идентификатор : 202761195154499999194372091334401189147 (0x988A62BF409B4BD3A2847702A223E51B)
Полное имя : M:\Frat Party(Andi).mkv
Формат : Matroska
Версия формата : Version 2
Размер файла : 3,39 Гбайт
Продолжительность : 1 ч. 24 м.
Общий поток : 5711 Кбит/сек
Дата кодирования : UTC 2013-07-09 14:52:10
Программа кодирования : mkvmerge v5.5.0 ('Healer') built on Apr 6 2012 21:43:24
Библиотека кодирования : libebml v1.2.3 + libmatroska v1.3.0
Видео
Идентификатор : 1
Формат : AVC
Формат/Информация : Advanced Video Codec
Профиль формата : High@L4.1
Параметр CABAC формата : Да
Параметр ReFrames формата : 5 кадров
Идентификатор кодека : V_MPEG4/ISO/AVC
Продолжительность : 1 ч. 24 м.
Битрейт : 4019 Кбит/сек
Ширина : 1280 пикселей
Высота : 720 пикселей
Соотношение сторон : 16:9
Режим частоты кадров : Постоянный
Частота кадров : 23,976 кадра/сек
Цветовое пространство : YUV
Субдискретизация насыщенности : 4:2:0
Битовая глубина : 8 бит
Тип развёртки : Прогрессивная
Бит/(Пиксели*Кадры) : 0.182
Размер потока : 2,31 Гбайт (68%)
Библиотека кодирования : x264 core 133 r2334 a3ac64b
Настройки программы : cabac=1 / ref=5 / deblock=1:0:0 / analyse=0x3:0x113 / me=umh / subme=7 / psy=1 / psy_rd=1.00:0.00 / mixed_ref=1 / me_range=16 / chroma_me=1 / trellis=1 / 8x8dct=1 / cqm=0 / deadzone=21,11 / fast_pskip=0 / chroma_qp_offset=-2 / threads=12 / lookahead_threads=2 / sliced_threads=0 / nr=0 / decimate=1 / interlaced=0 / bluray_compat=0 / constrained_intra=0 / bframes=3 / b_pyramid=2 / b_adapt=1 / b_bias=0 / direct=1 / weightb=1 / open_gop=0 / weightp=2 / keyint=250 / keyint_min=23 / scenecut=40 / intra_refresh=0 / rc_lookahead=40 / rc=2pass / mbtree=1 / bitrate=4019 / ratetol=1.0 / qcomp=0.60 / qpmin=0 / qpmax=69 / qpstep=4 / cplxblur=20.0 / qblur=0.5 / ip_ratio=1.40 / aq=1:1.00
Язык : English
Default : Да
Forced : Нет
Аудио #1
Идентификатор : 2
Формат : AC-3
Формат/Информация : Audio Coding 3
Расширение режима : CM (complete main)
Параметр Endianness формата : Big
Идентификатор кодека : A_AC3
Продолжительность : 1 ч. 24 м.
Вид битрейта : Постоянный
Битрейт : 192 Кбит/сек
Каналы : 2 канала
Расположение каналов : Front: L R
Частота : 48,0 КГц
Битовая глубина : 16 бит
Метод сжатия : С потерями
Размер потока : 117 Мбайт (3%)
Заголовок : проф.двухголосный
Язык : Russian
Default : Да
Forced : Нет
Аудио #2
Идентификатор : 3
Формат : DTS
Формат/Информация : Digital Theater Systems
Профиль формата : ES
Режим : 16
Параметр Endianness формата : Big
Идентификатор кодека : A_DTS
Продолжительность : 1 ч. 24 м.
Вид битрейта : Постоянный
Битрейт : 1509 Кбит/сек
Каналы : 6 каналов
Расположение каналов : Front: L C R, Side: L R, LFE
Частота : 48,0 КГц
Битовая глубина : 24 бит
Метод сжатия : С потерями
Размер потока : 917 Мбайт (26%)
Default : Нет
Forced : Нет

Скриншоты

Скачать

Скачать торрент!

Как скачивать? · Что такое торрент? · Рейтинг и ограничения

Сайт не распространяет и не хранит электронные версии произведений, а лишь предоставляет доступ к создаваемому пользователями каталогу ссылок на торрент-файлы, которые содержат только списки хеш-сумм

[Профиль] [ЛС]
Показать сообщения:    
Ответить на тему

Текущее время: Сегодня 22:23

Часовой пояс: GMT + 4



Вы не можете начинать темы
Вы не можете отвечать на сообщения
Вы не можете редактировать свои сообщения
Вы не можете удалять свои сообщения
Вы не можете голосовать в опросах
Вы не можете прикреплять файлы к сообщениям
Вы не можете скачивать файлы