Помеченный смертью / Отмеченный смертью / Нико-3 / Marked for Death (Дуайт Х. Литтл / Dwight H. Little) [1990, США, боевик, драма, BDRip 720p] MVO (Blu-ray CEE) + Dub (Хлопушка) + 3х DVO (НТВ, Рен-ТВ, Премьер) + Sub Rus, Ukr, Eng + Original Eng

Ответить на тему
 
Автор Сообщение

user ®

Стаж: 7 лет 7 месяцев

Сообщений: 20008

Пост Пост: #1 от 23-Июл-2013 15:00

[Цитировать]

Помеченный смертью / Отмеченный смертью / Нико-3 / Marked for Death
Страна: США
Жанр: боевик, триллер, драма, криминал
Год выпуска: 1990
Продолжительность: 01:33:19
Перевод: Профессиональный (многоголосый закадровый) Blu-ray CEE
Перевод 2: Профессиональный (дублированный) Хлопушка
Перевод 3: Профессиональный (двухголосый закадровый) НТВ
Перевод 4: Профессиональный (двухголосый закадровый) Рен-ТВ
Перевод 5: Профессиональный (двухголосый закадровый) Премьер Видео
Перевод 6: Авторский (одноголосый закадровый) А.Михалев
Перевод 7: Авторский (одноголосый закадровый) А.Гаврилов
Перевод 8: Одноголосый закадровый Никитин
Перевод 9: Одноголосый закадровый П.Прямостанов
Cубтитры: Russian, Ukrainian, English
Оригинальная аудиодорожка: английский
Режиссер: Дуайт Литтл /Dwight H. Little
В ролях: Стивен Сигал, Бейзил Уоллес, Кит Дэвид, Том Райт, Джоанна Пакула, Элизабет Грэйсен, Бетти Форд, Даниэль Харрис, Эл Израэл, Арлен Дин Снайдер
Описание: После смерти напарника Джон Хэтчер, специальный агент отдела по борьбе с наркотиками, решает подать в отставку. Переехав к своей сестре в Чикаго, Хэтчер намеревается вести тихое и размеренное существование. Но этому не суждено было сбыться.
На пути у бывшего полицейского встает ямайская наркомафия во главе со своим жутким главарем по прозвищу Зомби. Хэтчер оказывается втянутым в кровавые разборки.
Риализ от:

Тип релиза: BDRip 720p
Контейнер: MKV
Видео: 1280x542 at 23.976 fps, x264@L4.1, crf, ~6876 kbps avg
Аудио#1: Russian: 48 kHz, AC3, 3/2 (L,C,R,l,r) + LFE ch, ~448.00 kbps avg |Многоголосый закадровый, Blu-ray CEE|
Аудио#2: Russian: 48 kHz, AC3, 2/0 (L,R) ch, ~224.00 kbps avg |дубляж, Хлопушка|
Аудио#3: Russian: 48 kHz, AC3, 2/0 (L,R) ch, ~224.00 kbps avg |Профессиональный двухголосый закадровый, НТВ|
Аудио#4: Russian: 48 kHz, AC3, 2/0 (L,R) ch, ~224.00 kbps avg |Профессиональный двухголосый закадровый, Рен-ТВ|
Аудио#5: Russian: 48 kHz, AC3, 2/0 (L,R) ch, ~192.00 kbps avg |Профессиональный двухголосый закадровый, Премьер Видео|
Аудио#6: Russian: 48 kHz, AC3, 3/2 (L,C,R,l,r) + LFE ch, ~448.00 kbps avg |Одноголосый закадровый, А.Михалев|
Аудио#7: Russian: 48 kHz, AC3, 3/2 (L,C,R,l,r) + LFE ch, ~448.00 kbps avg |Одноголосый закадровый, А.Гаврилов|
Аудио#8: Russian: 48 kHz, AC3, 2/0 (L,R) ch, ~224.00 kbps avg |Одноголосый закадровый, Никитин|
Аудио#9: Russian: 48 kHz, AC3, 2/0 (L,R) ch, ~192.00 kbps avg |Одноголосый закадровый, П.Прямостанов|
Аудио#10: Ukrainian: 48 kHz, AC3, 3/2 (L,C,R,l,r) + LFE ch, ~448.00 kbps avg |Двухголосый закадровый, 1+1|
Аудио#11: English: 48 kHz, AC3, 3/2 (L,C,R,l,r) + LFE ch, ~640.00 kbps avg

MediaInfo

General
Complete name : C:\фильмы\стивен сигал\переводы\Marked.for.Death.1990.720p.BluRay.6xRus.Ukr.Eng.mkv
Format : Matroska
File size : 6.90 GiB
Duration : 1h 33mn
Overall bit rate : 10.6 Mbps
Movie name : Marked for Death (1990) - Release for HDCLUB by Skazhutin
Encoded date : UTC 2013-07-20 21:25:06
Writing application : mkvmerge v5.7.0 ('The Whirlwind') built on Jul 29 2012 15:12:35
Writing library : libebml v1.2.3 + libmatroska v1.3.0
Cover : Yes / Yes
Video
ID : 1
Format : AVC
Format/Info : Advanced Video Codec
Format profile : High@L4.1
Format settings, CABAC : Yes
Format settings, ReFrames : 12 frames
Muxing mode : Container profile=Unknown@4.1
Codec ID : V_MPEG4/ISO/AVC
Duration : 1h 33mn
Bit rate : 6 671 Kbps
Width : 1 280 pixels
Height : 542 pixels
Display aspect ratio : 2.35:1
Frame rate : 23.976 fps
Resolution : 8 bits
Colorimetry : 4:2:0
Scan type : Progressive
Bits/(Pixel*Frame) : 0.401
Stream size : 4.34 GiB (63%)
Title : Release for HDCLUB
Writing library : x264 core 130 r2273kMod b3065e6
Encoding settings : cabac=1 / ref=12 / deblock=1:-3:-3 / analyse=0x3:0x113 / me=umh / subme=11 / psy=1 / fade_compensate=0.00 / psy_rd=1.00:0.00 / mixed_ref=1 / me_range=48 / chroma_me=1 / trellis=2 / 8x8dct=1 / cqm=0 / deadzone=21,11 / fast_pskip=1 / chroma_qp_offset=-2 / threads=12 / lookahead_threads=3 / sliced_threads=0 / nr=0 / decimate=1 / interlaced=0 / bluray_compat=0 / constrained_intra=0 / bframes=12 / b_pyramid=2 / b_adapt=2 / b_bias=0 / direct=3 / weightb=1 / open_gop=0 / weightp=2 / keyint=250 / keyint_min=23 / scenecut=40 / intra_refresh=0 / rc_lookahead=40 / rc=crf / mbtree=0 / crf=17.0000 / qcomp=0.60 / qpmin=0 / qpmax=69 / qpstep=4 / vbv_maxrate=50000 / vbv_bufsize=62500 / crf_max=0.0 / nal_hrd=none / ip_ratio=1.40 / pb_ratio=1.30 / aq=1:0.80
Matrix coefficients : BT.709-5, BT.1361, IEC 61966-2-4 709, SMPTE RP177
Audio #1
ID : 2
Format : AC-3
Format/Info : Audio Coding 3
Codec ID : A_AC3
Duration : 1h 33mn
Bit rate mode : Constant
Bit rate : 448 Kbps
Channel(s) : 6 channels
Channel positions : Front: L C R, Side: L R, LFE
Sampling rate : 48.0 KHz
Stream size : 299 MiB (4%)
Title : AC3 5.1 @ 448 kbps - MVO, Blu-ray CEE
Language : Russian
Audio #2
ID : 3
Format : AC-3
Format/Info : Audio Coding 3
Codec ID : A_AC3
Duration : 1h 33mn
Bit rate mode : Constant
Bit rate : 224 Kbps
Channel(s) : 2 channels
Channel positions : Front: L R
Sampling rate : 48.0 KHz
Stream size : 150 MiB (2%)
Title : Dub (Хлопушка)
Language : Russian
Audio #3
ID : 4
Format : AC-3
Format/Info : Audio Coding 3
Codec ID : A_AC3
Duration : 1h 33mn
Bit rate mode : Constant
Bit rate : 224 Kbps
Channel(s) : 2 channels
Channel positions : Front: L R
Sampling rate : 48.0 KHz
Stream size : 150 MiB (2%)
Title : НТВ
Language : Russian
Audio #4
ID : 5
Format : AC-3
Format/Info : Audio Coding 3
Codec ID : A_AC3
Duration : 1h 33mn
Bit rate mode : Constant
Bit rate : 224 Kbps
Channel(s) : 2 channels
Channel positions : Front: L R
Sampling rate : 48.0 KHz
Stream size : 150 MiB (2%)
Title : РЕН-ТВ
Language : Russian
Audio #5
ID : 6
Format : AC-3
Format/Info : Audio Coding 3
Codec ID : A_AC3
Duration : 1h 33mn
Bit rate mode : Constant
Bit rate : 192 Kbps
Channel(s) : 2 channels
Channel positions : Front: L R
Sampling rate : 48.0 KHz
Stream size : 128 MiB (2%)
Title : Премьер Видео Фильм
Language : Russian
Audio #6
ID : 7
Format : AC-3
Format/Info : Audio Coding 3
Codec ID : A_AC3
Duration : 1h 33mn
Bit rate mode : Constant
Bit rate : 448 Kbps
Channel(s) : 6 channels
Channel positions : Front: L C R, Side: L R, LFE
Sampling rate : 48.0 KHz
Stream size : 299 MiB (4%)
Title : AC3 5.1 @ 448 kbps - VO, Mihalev
Language : Russian
Audio #7
ID : 8
Format : AC-3
Format/Info : Audio Coding 3
Codec ID : A_AC3
Duration : 1h 33mn
Bit rate mode : Constant
Bit rate : 448 Kbps
Channel(s) : 6 channels
Channel positions : Front: L C R, Side: L R, LFE
Sampling rate : 48.0 KHz
Stream size : 299 MiB (4%)
Title : AC3 5.1 @ 448 kbps - VO, Gavrilov
Language : Russian
Audio #8
ID : 9
Format : AC-3
Format/Info : Audio Coding 3
Codec ID : A_AC3
Duration : 1h 33mn
Bit rate mode : Constant
Bit rate : 224 Kbps
Channel(s) : 2 channels
Channel positions : Front: L R
Sampling rate : 48.0 KHz
Stream size : 150 MiB (2%)
Title : Никитин
Language : Russian
Audio #9
ID : 10
Format : AC-3
Format/Info : Audio Coding 3
Codec ID : A_AC3
Duration : 1h 33mn
Bit rate mode : Constant
Bit rate : 192 Kbps
Channel(s) : 2 channels
Channel positions : Front: L R
Sampling rate : 48.0 KHz
Stream size : 128 MiB (2%)
Title : AC3 2.0 @ 192 kbps - VO, Priamostanov
Language : Russian
Audio #10
ID : 11
Format : AC-3
Format/Info : Audio Coding 3
Codec ID : A_AC3
Duration : 1h 33mn
Bit rate mode : Constant
Bit rate : 448 Kbps
Channel(s) : 6 channels
Channel positions : Front: L C R, Side: L R, LFE
Sampling rate : 48.0 KHz
Stream size : 299 MiB (4%)
Title : AC3 5.1 @ 448 kbps - DVO, 1+1
Language : Ukrainian
Audio #11
ID : 12
Format : AC-3
Format/Info : Audio Coding 3
Codec ID : A_AC3
Duration : 1h 33mn
Bit rate mode : Constant
Bit rate : 640 Kbps
Channel(s) : 6 channels
Channel positions : Front: L C R, Side: L R, LFE
Sampling rate : 48.0 KHz
Stream size : 427 MiB (6%)
Title : AC3 5.1 @ 640 kbps
Text #1
ID : 13
Format : UTF-8
Codec ID : S_TEXT/UTF8
Codec ID/Info : UTF-8 Plain Text
Language : Russian
Text #2
ID : 14
Format : UTF-8
Codec ID : S_TEXT/UTF8
Codec ID/Info : UTF-8 Plain Text
Language : Ukrainian
Text #3
ID : 15
Format : UTF-8
Codec ID : S_TEXT/UTF8
Codec ID/Info : UTF-8 Plain Text
Menu
00:00:00.000 : en:Death & Drugs (Main Titles)
00:07:52.221 : en:I've Had Enough
00:10:12.028 : en:Uncle John
00:14:02.633 : en:Old Friends
00:16:43.252 : en:Screwface
00:20:19.551 : en:The Curse
00:23:05.258 : en:Blood in the Bar
00:30:57.063 : en:The Posse's Power
00:36:13.504 : en:Death Drives By
00:39:26.363 : en:Looking for Screwface
00:43:00.619 : en:Marked for Death
00:46:50.933 : en:A Message From Screwface
00:50:28.483 : en:Serious Fun
00:59:01.829 : en:The Big Squeeze
01:01:54.877 : en:Ready for War
01:06:10.383 : en:Jamaica
01:11:38.544 : en:An Army of Three
01:18:01.093 : en:The Posse's "Prisoner"
01:20:56.685 : en:Screwface Is Dead
01:26:02.490 : en:Dead Again
01:29:10.762 : en:The Stronger Magic

Скриншоты

Скачать

Скачать торрент!

Как скачивать? · Что такое торрент? · Рейтинг и ограничения

Сайт не распространяет и не хранит электронные версии произведений, а лишь предоставляет доступ к создаваемому пользователями каталогу ссылок на торрент-файлы, которые содержат только списки хеш-сумм

[Профиль] [ЛС]
Показать сообщения:    
Ответить на тему

Текущее время: Сегодня 22:42

Часовой пояс: GMT + 4



Вы не можете начинать темы
Вы не можете отвечать на сообщения
Вы не можете редактировать свои сообщения
Вы не можете удалять свои сообщения
Вы не можете голосовать в опросах
Вы не можете прикреплять файлы к сообщениям
Вы не можете скачивать файлы