Невиновный / An innocent man (Питер Йейтс / Peter Yates) [1989, США, боевик, драма, криминал, BDRip 720p] Dub + DVO (Видеосервис) + Sub Rus, Eng + Original Eng

Ответить на тему
 
Автор Сообщение

user ®

Стаж: 7 лет 7 месяцев

Сообщений: 20008

Пост Пост: #1 от 23-Июл-2013 15:00

[Цитировать]

Невиновный / An innocent man
Страна: США
Жанр: боевик, драма, криминал
Год выпуска: 1989
Продолжительность: 01:53:31
Перевод 1: Профессиональный (дублированный)
Перевод 2: Профессиональный (двухголосый закадровый) Видеосервис
Cубтитры: русские, английские
Оригинальная аудиодорожка: английский
Режиссер: Питер Йейтс / Peter Yates
В ролях: Том Селлек, Ф. Мюррэй Абрахам, Лайла Робинс, Дэвид Раш, Ричард Янг, Баджа Джола, Тодд Графф, М. К. Гейни, Питер Ван Норден, Брюс А. Янг
Описание: Жизнь преуспевающего авиационного инженера Джими Рэйнвуда давно вошла в привычное русло. Все изменилось в одночасье: Джими оказывается в тюрьме по ложному обвинению. Двое коррумпированных полицейских навсегда перечеркнули его счастье и надежду на будущее. По ту сторону неприступной стены для Джими открылся новый страшный мир, где не живут, а выживают. Но на свободе у невиновного осталась одна заветная цель, ради которой стоит бороться: он ждет того момента, когда сможет взглянуть в лицо своим врагам, чтобы они увидели в его глазах очищающее пламя мести.
Сэмпл: http://sendfile.su/842958
Тип релиза: BDRip 720p
Контейнер: MKV
Видео: MPEG-4 AVC; 1280x720; 5780 Kbps; 23,976 fps
Аудио 1: Russian: AC3; 192 Kbps; 2 ch; 48 khz DUB
Аудио 2: Russian: AC3; 192 Kbps; 2 ch; 48 khz DVO Видеосервис
Аудио 3: English: AC3; 384 Kbps; 6 ch; 48 khz
Аудио 4: English: DTS; 1510 kbps 2 ch; 48 kHz; 24-bit
Формат субтитров: softsub (SRT)

MediaInfo

General
Unique ID : 220333489025673281984087164044651897607 (0xA5C2AFB9A71A39EA973380D68DA9A307)
Complete name : An.Innocent.Man.1989..x264.BDRip720p.mkv
Format : Matroska
Format version : Version 4 / Version 2
File size : 6.39 GiB
Duration : 1h 53mn
Overall bit rate : 8 059 Kbps
Movie name : An.Innocent.Man.1989.BDRip720p
Encoded date : UTC 2013-07-23 04:38:13
Writing application : mkvmerge v6.3.0 ('You can't stop me!') built on Jun 28 2013 20:09:41
Writing library : libebml v1.3.0 + libmatroska v1.4.0
Video
ID : 1
Format : AVC
Format/Info : Advanced Video Codec
Format profile : High@L4.1
Format settings, CABAC : Yes
Format settings, ReFrames : 8 frames
Codec ID : V_MPEG4/ISO/AVC
Duration : 1h 53mn
Bit rate : 5 780 Kbps
Width : 1 280 pixels
Height : 720 pixels
Display aspect ratio : 16:9
Frame rate mode : Constant
Frame rate : 23.976 fps
Color space : YUV
Chroma subsampling : 4:2:0
Bit depth : 8 bits
Scan type : Progressive
Bits/(Pixel*Frame) : 0.262
Stream size : 4.46 GiB (70%)
Title : An.Innocent.Man.1989.BDRip720p
Writing library : x264 core 133 r2334 a3ac64b
Encoding settings : cabac=1 / ref=8 / deblock=1:-3:-3 / analyse=0x3:0x133 / me=umh / subme=9 / psy=1 / psy_rd=1.00:0.00 / mixed_ref=1 / me_range=24 / chroma_me=1 / trellis=2 / 8x8dct=1 / cqm=0 / deadzone=21,11 / fast_pskip=1 / chroma_qp_offset=-2 / threads=12 / lookahead_threads=2 / sliced_threads=0 / nr=0 / decimate=1 / interlaced=0 / bluray_compat=0 / constrained_intra=0 / bframes=7 / b_pyramid=2 / b_adapt=2 / b_bias=0 / direct=3 / weightb=1 / open_gop=0 / weightp=2 / keyint=240 / keyint_min=23 / scenecut=40 / intra_refresh=0 / rc_lookahead=60 / rc=2pass / mbtree=1 / bitrate=5780 / ratetol=1.0 / qcomp=0.60 / qpmin=10 / qpmax=51 / qpstep=4 / cplxblur=20.0 / qblur=0.5 / vbv_maxrate=40000 / vbv_bufsize=40000 / nal_hrd=none / ip_ratio=1.40 / aq=1:1.00
Language : English
Default : Yes
Forced : No
Audio #1
ID : 2
Format : AC-3
Format/Info : Audio Coding 3
Mode extension : CM (complete main)
Format settings, Endianness : Big
Codec ID : A_AC3
Duration : 1h 53mn
Bit rate mode : Constant
Bit rate : 192 Kbps
Channel(s) : 2 channels
Channel positions : Front: L R
Sampling rate : 48.0 KHz
Bit depth : 16 bits
Compression mode : Lossy
Stream size : 156 MiB (2%)
Title : DUB
Language : Russian
Default : Yes
Forced : No
Audio #2
ID : 3
Format : AC-3
Format/Info : Audio Coding 3
Mode extension : CM (complete main)
Format settings, Endianness : Big
Codec ID : A_AC3
Duration : 1h 53mn
Bit rate mode : Constant
Bit rate : 192 Kbps
Channel(s) : 2 channels
Channel positions : Front: L R
Sampling rate : 48.0 KHz
Bit depth : 16 bits
Compression mode : Lossy
Stream size : 156 MiB (2%)
Title : DVO Видеосервис
Language : Russian
Default : No
Forced : No
Audio #3
ID : 4
Format : AC-3
Format/Info : Audio Coding 3
Mode extension : CM (complete main)
Format settings, Endianness : Big
Codec ID : A_AC3
Duration : 1h 53mn
Bit rate mode : Constant
Bit rate : 384 Kbps
Channel(s) : 6 channels
Channel positions : Front: L C R, Side: L R, LFE
Sampling rate : 48.0 KHz
Bit depth : 16 bits
Compression mode : Lossy
Stream size : 312 MiB (5%)
Language : English
Default : No
Forced : No
Audio #4
ID : 5
Format : DTS
Format/Info : Digital Theater Systems
Mode : 16
Format settings, Endianness : Big
Codec ID : A_DTS
Duration : 1h 53mn
Bit rate mode : Constant
Bit rate : 1 509 Kbps
Channel(s) : 2 channels
Channel positions : Front: L R
Sampling rate : 48.0 KHz
Bit depth : 24 bits
Compression mode : Lossy
Stream size : 1.20 GiB (19%)
Language : English
Default : No
Forced : No
Text #1
ID : 6
Format : UTF-8
Codec ID : S_TEXT/UTF8
Codec ID/Info : UTF-8 Plain Text
Title : для DVO Видеосервис
Language : Russian
Default : Yes
Forced : Yes
Text #2
ID : 7
Format : UTF-8
Codec ID : S_TEXT/UTF8
Codec ID/Info : UTF-8 Plain Text
Language : Russian
Default : No
Forced : No
Text #3
ID : 8
Format : UTF-8
Codec ID : S_TEXT/UTF8
Codec ID/Info : UTF-8 Plain Text
Language : English
Default : No
Forced : No
Menu
00:00:00.000 : en:00:00:00.000
00:05:07.407 : en:00:05:07.407
00:10:40.707 : en:00:10:40.707
00:17:31.550 : en:00:17:31.550
00:28:01.280 : en:00:28:01.280
00:33:53.064 : en:00:33:53.064
00:39:37.542 : en:00:39:37.542
00:44:37.275 : en:00:44:37.275
00:50:05.336 : en:00:50:05.336
00:58:42.686 : en:00:58:42.686
01:03:07.484 : en:01:03:07.484
01:12:05.821 : en:01:12:05.821
01:21:02.591 : en:01:21:02.591
01:33:14.222 : en:01:33:14.222
01:40:31.559 : en:01:40:31.559

x264

---[Information] [21.07.2013 13:00:04] x264 [info]: profile High, level 4.1
---[Information] [21.07.2013 19:55:21] x264 [info]: frame I:1144 Avg QP:17.53 size:113060
---[Information] [21.07.2013 19:55:21] x264 [info]: frame P:32417 Avg QP:20.04 size: 45191
---[Information] [21.07.2013 19:55:21] x264 [info]: frame B:129741 Avg QP:21.76 size: 25629
---[Information] [21.07.2013 19:55:21] x264 [info]: consecutive B-frames: 1.1% 2.0% 5.0% 13.8% 35.4% 10.5% 25.9% 6.3%
---[Information] [21.07.2013 19:55:21] x264 [info]: mb I I16..4: 2.4% 90.4% 7.1%
---[Information] [21.07.2013 19:55:21] x264 [info]: mb P I16..4: 1.0% 11.0% 1.0% P16..4: 45.6% 24.1% 13.7% 0.2% 0.0% skip: 3.4%
---[Information] [21.07.2013 19:55:21] x264 [info]: mb B I16..4: 0.0% 1.6% 0.1% B16..8: 58.4% 16.9% 4.8% direct: 5.4% skip:12.8% L0:45.8% L1:46.8% BI: 7.4%
---[Information] [21.07.2013 19:55:21] x264 [info]: 8x8 transform intra:88.2% inter:67.9%
---[Information] [21.07.2013 19:55:21] x264 [info]: direct mvs spatial:29.9% temporal:70.1%
---[Information] [21.07.2013 19:55:21] x264 [info]: coded y,uvDC,uvAC intra: 93.0% 71.3% 25.2% inter: 48.8% 39.3% 0.5%
---[Information] [21.07.2013 19:55:21] x264 [info]: i16 v,h,dc,p: 35% 14% 8% 43%
---[Information] [21.07.2013 19:55:21] x264 [info]: i8 v,h,dc,ddl,ddr,vr,hd,vl,hu: 8% 6% 5% 12% 17% 15% 14% 12% 11%
---[Information] [21.07.2013 19:55:21] x264 [info]: i4 v,h,dc,ddl,ddr,vr,hd,vl,hu: 8% 5% 2% 10% 18% 18% 15% 13% 11%
---[Information] [21.07.2013 19:55:21] x264 [info]: i8c dc,h,v,p: 34% 26% 21% 19%
---[Information] [21.07.2013 19:55:21] x264 [info]: Weighted P-Frames: Y:5.9% UV:1.9%
---[Information] [21.07.2013 19:55:21] x264 [info]: ref P L0: 44.0% 12.1% 15.9% 8.9% 5.9% 5.6% 4.0% 3.4% 0.4% 0.0%
---[Information] [21.07.2013 19:55:21] x264 [info]: ref B L0: 68.8% 14.4% 7.9% 3.7% 3.1% 1.5% 0.6%
---[Information] [21.07.2013 19:55:21] x264 [info]: ref B L1: 86.0% 14.0%
---[Information] [21.07.2013 19:55:21] x264 [info]: kb/s:5778.20
---[Information] [21.07.2013 19:55:21] encoded 163302 frames, 6.55 fps, 5778.20 kb/s

Скриншоты


Скачать

Скачать торрент!

Как скачивать? · Что такое торрент? · Рейтинг и ограничения

Сайт не распространяет и не хранит электронные версии произведений, а лишь предоставляет доступ к создаваемому пользователями каталогу ссылок на торрент-файлы, которые содержат только списки хеш-сумм

[Профиль] [ЛС]
Показать сообщения:    
Ответить на тему

Текущее время: Сегодня 06:59

Часовой пояс: GMT + 4



Вы не можете начинать темы
Вы не можете отвечать на сообщения
Вы не можете редактировать свои сообщения
Вы не можете удалять свои сообщения
Вы не можете голосовать в опросах
Вы не можете прикреплять файлы к сообщениям
Вы не можете скачивать файлы