Гагарин. Первый в космосе (Павел Пархоменко) [2013, Драма, биография, история, BDRip]

Ответить на тему
 
Автор Сообщение

user ®

Стаж: 7 лет 7 месяцев

Сообщений: 20008

Пост Пост: #1 от 23-Июл-2013 15:00

[Цитировать]

Гагарин. Первый в космосе- Год выпуска: 2013
Жанр: драма, биография, история
Продолжительность: 01:48:10-Режиссёр:
Павел Пархоменко-В ролях:
Ярослав Жалнин (Юрий Гагарин), Михаил Филиппов (академик Королев), Владимир Стеклов (генерал Каманин), Ольга Иванова (Валентина Гагарина), Вадим Мичман (Герман Титов), Даниил Воробьев (Григорий Нелюбов), Надежда Маркина (мать Гагарина, Анна Тимофеевна Гагарина), Виктор Проскурин (отец Гагарина, Алексей Иванович Гагарин), Инга Стрелкова-Оболдина (медсестра), Валерий Афанасьев (лодочник), Евгений Ткачук (старший лейтенант)-Описание:
Фильм посвящен первым шагам человечества на пути освоения космоса и непосредственно судьбе первого космонавта Ю. А. Гагарина. Основной лейтмотив — борьба за право быть первым: соревнование в первом отряде космонавтов; конкуренция технологий в ракетостроении; противостояние сверхдержав — СССР и США. В первый отряд космонавтов отбирали из трёх тысяч летчиков-истребителей по всей стране. В легендарную двадцатку попали лучшие из лучших. Кто из них полетит первым, не знал никто. На этом пути пришлось бороться не только с земным притяжением…-КиноПоиск | Сэмпл |-Качество: BDRip [GAGARIN_HDCLUB]
Формат: AVI
Видео: 688x384 (1.79:1), 25 fps, XviD build 73 ~1539 kbps avg, 0.23 bit/pixel
Аудио: 48 kHz, AC3 Dolby Digital, 3/2 (L,C,R,l,r) + LFE ch, ~384.00 kbps avg
-

Скриншоты

MediaInfo

General
      Complete name : C:\Gagarin_Pervyi_v_kosmose_2013_BDRip_by_Dalemake.avi
      Format : AVI
      Format/Info : Audio Video Interleave
      File size : 1.46 GiB
      Duration : 1h 48mn
      Overall bit rate : 1 933 Kbps
      Writing application : VirtualDubMod 1.5.10.3 | www.virtualdub-fr.org || (build 2550/release)
      Writing library : VirtualDubMod build 2550/release
   Video
      Format : MPEG-4 Visual
      Format profile : Streaming Video@L1
      Format settings, BVOP : Yes
      Format settings, QPel : No
      Format settings, GMC : No warppoints
      Format settings, Matrix : Custom
      Codec ID : XVID
      Codec ID/Hint : XviD
      Duration : 1h 48mn
      Bit rate : 1 539 Kbps
      Width : 688 pixels
      Height : 384 pixels
      Display aspect ratio : 16/9
      Frame rate : 25.000 fps
      Resolution : 24 bits
      Colorimetry : 4:2:0
      Scan type : Progressive
      Bits/(Pixel*Frame) : 0.233
      Stream size : 1.16 GiB (80%)
      Writing library : XviD 73
   Audio
      Format : AC-3
      Format/Info : Audio Coding 3
      Codec ID : 2000
      Duration : 1h 48mn
      Bit rate mode : Constant
      Bit rate : 384 Kbps
      Channel(s) : 6 channels
      Channel positions : Front: L C R, Surround: L R, LFE
      Sampling rate : 48.0 KHz
      Stream size : 297 MiB (20%)
      Alignment : Split accross interleaves
      Interleave, duration : 40 ms (1.00 video frame)
      Interleave, preload duration : 500 ms
-
Скачать

Скачать торрент!

Как скачивать? · Что такое торрент? · Рейтинг и ограничения

Сайт не распространяет и не хранит электронные версии произведений, а лишь предоставляет доступ к создаваемому пользователями каталогу ссылок на торрент-файлы, которые содержат только списки хеш-сумм

[Профиль] [ЛС]
Показать сообщения:    
Ответить на тему

Текущее время: Сегодня 11:52

Часовой пояс: GMT + 4



Вы не можете начинать темы
Вы не можете отвечать на сообщения
Вы не можете редактировать свои сообщения
Вы не можете удалять свои сообщения
Вы не можете голосовать в опросах
Вы не можете прикреплять файлы к сообщениям
Вы не можете скачивать файлы