Операция "Белвис" / Operation Belvis Bash / Zero Dark Dirty (Лекс Львовски / Lex Lvovsky, Джо Уолсер / Joe Walser) [2013, США, музыкальная романтическая комедия, DVB] DVO (НТВ+)

Ответить на тему
 
Автор Сообщение

user ®

Стаж: 7 лет 7 месяцев

Сообщений: 20008

Пост Пост: #1 от 23-Июл-2013 15:00

[Цитировать]

Операция "Белвис"
Operation Belvis Bash- Страна: США
Жанр: музыкальная романтическая комедия
Год выпуска: 2013
Продолжительность: 01:29:24Перевод: Профессиональный (двухголосый закадровый) (НТВ+, перевод Ирины Володиной, текст читают Ольга Кузнецова, Даниил Эльдаров)
Cубтитры: нет
Оригинальная аудиодорожка: нет
Режиссер: Лекс Львовски / Lex Lvovsky, Джо Уолсер / Joe Walser
В ролях: Лекс Львовски / Lex Lvovsky (Belvis Bash), Кори Фельдман / Corey Feldman (Samuel Stilman), Марк Меткалф / Mark Metcalf (Major Emile Hickory), Фрэнк Сталлоне / Frank Stallone (Jean Valjean), Дэниел Болдуин / Daniel Baldwin (Namco Douglas), Ноэль Бриттон / Noel Britton (May Summer), Валид Амини / Walid Amini (Samir)
Описание: В эпоху политических и национальных конфликтов американский рок-музыкант Белвис Баш рекрутируется армией США и отправляется в Афганистан, чтобы завоевать сердца и умы его жителей, где присоединяется к странной труппе, состоящей из комика разговорного жанра Сэмюэля, афганца-барабанщика Самира и актрисы музыкального театра Мэй. В это время таинственная фигура плетет зловещий заговор против американского певца. И ни Белвис, ни остальные исполнители не догадываются, что они являются участниками далеко идущего секретного плана…
Доп. информация: Запись со спутника (телеканал "Премьера"). Во время неанглийской речи на экране вшитые английские субтитры.
Информация: http://www.imdb.com/title/tt1288367/
Сэмпл: http://multi-up.com/887257
Качество видео: DVB
Формат видео: MPEG-PS
Видео: MPEG Video 2, 720x576@1024x576 (16:9), 25 fps, ~2257 kbps avg, 0.218 bit/pixel
Аудио: 48 kHz, MPEG Audio 2, 2 ch, ~192.00 kbps avg

MediaInfo

Полное имя : H:\My Torrents\[apreder]Operation_Belvis_Bash(2013)DVB.mpgФормат : MPEG-PSРазмер файла : 1,56 ГбайтПродолжительность : 1 ч. 29 м.Режим общего битрейта : ПеременныйОбщий поток : 2499 Кбит/сек
ВидеоИдентификатор : 224 (0xE0)Формат : MPEG VideoВерсия формата : Version 2Профиль формата : Main@MainПараметр BVOP формата : ДаПараметр матрицы формата : ВыборочнаяПараметр GOP формата : M=3, N=36Продолжительность : 1 ч. 29 м.Вид битрейта : ПеременныйБитрейт : 2257 Кбит/секШирина : 720 пикселейВысота : 576 пикселейСоотношение сторон : 16:9Частота кадров : 25,000 кадров/секСтандарт вещания : PALЦветовое пространство : YUVСубдискретизация насыщенности : 4:2:0Битовая глубина : 8 битТип развёртки : ЧересстрочнаяПорядок развёртки : Верхнее поле первоеМетод сжатия : С потерямиБит/(Пиксели*Кадры) : 0.218TimeCode_FirstFrame : 00:00:00:00TimeCode_Source : Group of pictures headerРазмер потока : 1,41 Гбайт (90%)
АудиоИдентификатор : 192 (0xC0)Формат : MPEG AudioВерсия формата : Version 1Профиль формата : Layer 2Продолжительность : 1 ч. 29 м.Вид битрейта : ПостоянныйБитрейт : 192 Кбит/секКаналы : 2 каналаЧастота : 48,0 КГцМетод сжатия : С потерямиРазмер потока : 123 Мбайт (8%)

Скриншот c названием фильма

Скриншоты


Резервные скриншоты


-873/855√
Скачать

Скачать торрент!

Как скачивать? · Что такое торрент? · Рейтинг и ограничения

Сайт не распространяет и не хранит электронные версии произведений, а лишь предоставляет доступ к создаваемому пользователями каталогу ссылок на торрент-файлы, которые содержат только списки хеш-сумм

[Профиль] [ЛС]
Показать сообщения:    
Ответить на тему

Текущее время: Сегодня 23:42

Часовой пояс: GMT + 4



Вы не можете начинать темы
Вы не можете отвечать на сообщения
Вы не можете редактировать свои сообщения
Вы не можете удалять свои сообщения
Вы не можете голосовать в опросах
Вы не можете прикреплять файлы к сообщениям
Вы не можете скачивать файлы