Рождённый сражаться / Born to Fight / Gerd ma lui (Панна Риттикрай / Panna Rittikrai) [1984, Таиланд, детектив, боевые искусства, DVDRip] VO (Jet)

Ответить на тему
 
Автор Сообщение

user ®

Стаж: 13 лет

Сообщений: 15071

Пост Пост: #1 от 23-Июл-2013 11:50

[Цитировать]

Рождённый сражаться / Born to Fight / Gerd ma lui
Страна: Таиланд
Жанр: детектив, боевые искусства
Год выпуска: 1984
Продолжительность: 01:33:40
Перевод: Одноголосый закадровый - Виктор Береговых (Jet)
Cубтитры: нет
Режиссер: Панна Риттикрай / Panna Rittikrai
В ролях: Панна Риттикрай, Hernfah Khwangmhek
Описание: У адвоката богатой семьи есть доказательства того, что зять его клиента ворует семейные деньги. Узнав об этом, зять посылает бригаду убийц "Зелёные драконы", чтобы разыскать и шлёпнуть адвокатишку. А семья ищет кого-нибудь, кто может спасти адвоката от убийц, и выходит на бывшего полицейского, который в настоящее время подрабатывает тренером боевых искусств.
Сэмпл: http://multi-up.com/887173
Качество видео: DVDRip
Формат видео: AVI
Видео: XviD, 688x480, 1.433, 25.000 fps, 1993 Kbps
Аудио: АС3, 48.0 KHz, 192 Кбит/с, 2 ch

MediaInfo

General
Complete name : C:\!DUploads\Rojdenniy.srajatsya.1984.xvid.DVDRip].avi
Format : AVI
Format/Info : Audio Video Interleave
File size : 1.44 GiB
Duration : 1h 33mn
Overall bit rate : 2 195 Kbps
Writing application : VirtualDubMod 1.5.10.2 (build 2540/release)
Writing library : VirtualDubMod build 2540/release
Video
ID : 0
Format : MPEG-4 Visual
Format profile : Advanced Simple@L5
Format settings, BVOP : 1
Format settings, QPel : No
Format settings, GMC : No warppoints
Format settings, Matrix : Default (MPEG)
Codec ID : XVID
Codec ID/Hint : XviD
Duration : 1h 33mn
Bit rate : 1 993 Kbps
Width : 688 pixels
Height : 480 pixels
Display aspect ratio : 1.433
Frame rate : 25.000 fps
Color space : YUV
Chroma subsampling : 4:2:0
Bit depth : 8 bits
Scan type : Progressive
Compression mode : Lossy
Bits/(Pixel*Frame) : 0.241
Stream size : 1.30 GiB (91%)
Writing library : XviD 64
Audio
ID : 1
Format : AC-3
Format/Info : Audio Coding 3
Mode extension : CM (complete main)
Format settings, Endianness : Big
Codec ID : 2000
Duration : 1h 33mn
Bit rate mode : Constant
Bit rate : 192 Kbps
Channel(s) : 2 channels
Channel positions : Front: L R
Sampling rate : 48.0 KHz
Bit depth : 16 bits
Compression mode : Lossy
Stream size : 129 MiB (9%)
Alignment : Split accross interleaves
Interleave, duration : 40 ms (1.00 video frame)
Interleave, preload duration : 500 ms

Скриншот c названием фильма

Скриншоты

Скачать

Скачать торрент! Рождённый сражаться / Born to Fight / Gerd ma lui (Панна Риттикрай / Panna Rittikrai) [1984, Таиланд, детектив, боевые искусства, DVDRip] VO (Jet)

Как скачивать? · Что такое торрент? · Рейтинг и ограничения

Сайт не распространяет и не хранит электронные версии произведений, а лишь предоставляет доступ к создаваемому пользователями каталогу ссылок на торрент-файлы, которые содержат только списки хеш-сумм

[Профиль] [ЛС]
Показать сообщения:    
Ответить на тему

Текущее время: Сегодня 17:37

Часовой пояс: GMT + 4



Вы не можете начинать темы
Вы не можете отвечать на сообщения
Вы не можете редактировать свои сообщения
Вы не можете удалять свои сообщения
Вы не можете голосовать в опросах
Вы не можете прикреплять файлы к сообщениям
Вы не можете скачивать файлы