Друг / Nanban (С. Шанкар / S. Shankar) [2012, Индия, Драма, мелодрама, комедия, DVDRip] Sub Rus

Ответить на тему
 
Автор Сообщение

user ®

Стаж: 12 лет

Сообщений: 15124

Пост Пост: #1 от 23-Июл-2013 08:40

[Цитировать]

Друг / Nanban
Страна: Индия
Жанр: Драма, мелодрама, комедия
Год выпуска: 2012
Продолжительность: 03:00:59
Перевод: Субтитры
Cубтитры: русские
Режиссер: С. Шанкар / S. Shankar
В ролях: Виджай, Джива, Шрикант, Илеана, Сатьярадж, Сатьян, Нарин, Сурья С.Дж., Виджай Васант, Т.М. Картик Сринивасан
Описание: 10 лет прошло с тех пор, как Сентил и Венкат закончили колледж. Но до сих пор их мучает одна мысль: куда и почему делся их третий друг, Пари? И вот, когда однокурсник сообщает им, что знает, где искать Пари, мужчины бросают все и, в чем были, мчатся к нему. Но найти потерянного друга не так просто, для этого придется колесить по всему штату, и, конечно, поездка всколыхнет былые воспоминания. О том, как Пари вошел в их жизни и круто их изменил, помог обоим найти себя и исчез из их жизни…
Доп. информация: Релиз
Перевод, редакция: Jyoti
Сэмпл: http://multi-up.com/887121
Качество видео: DVDRip
Формат видео: AVI
Видео: XviD build 63, 720x304 (2.37:1), 23.976 fps, 1175 kbps avg
Аудио: Tamil AC3 Dolby Digital, 48 kHz, 3/2 (L,C,R,l,r) + LFE ch, 448.00 kbps avg
Формат субтитров: softsub (SRT)

MediaInfo

General
Complete name : D:\Drug.2012.DVDRip.Xvid.BwTorrents\Drug.2012.DVDRip.Xvid.BwTorrents.avi
Format : AVI
Format/Info : Audio Video Interleave
Format profile : OpenDML
File size : 2.06 GiB
Duration : 3h 0mn
Overall bit rate : 1 630 Kbps
Writing application : VirtualDubMod 1.5.10.3 | www.virtualdub-fr.org || (build 2550/release)
Writing library : VirtualDubMod build 2550/release
Video
ID : 0
Format : MPEG-4 Visual
Format profile : AdvancedSimple@L5
Format settings, BVOP : Yes
Format settings, QPel : No
Format settings, GMC : No warppoints
Format settings, Matrix : Default (MPEG)
Codec ID : XVID
Codec ID/Hint : XviD
Duration : 3h 0mn
Bit rate : 1 170 Kbps
Width : 720 pixels
Height : 304 pixels
Display aspect ratio : 2.35
Frame rate : 23.976 fps
Resolution : 24 bits
Colorimetry : 4:2:0
Scan type : Progressive
Bits/(Pixel*Frame) : 0.223
Stream size : 1.48 GiB (72%)
Writing library : XviD 63
Audio
ID : 1
Format : AC-3
Format/Info : Audio Coding 3
Codec ID : 2000
Duration : 3h 0mn
Bit rate mode : Constant
Bit rate : 448 Kbps
Channel(s) : 6 channels
Channel positions : Front: L C R, Surround: L R, LFE
Sampling rate : 48.0 KHz
Stream size : 580 MiB (27%)
Alignment : Split accross interleaves
Interleave, duration : 42 ms (1.00 video frame)
Interleave, preload duration : 500 ms

Фрагмент субтитров

435
00:28:39,832 --> 00:28:43,673
И Вирус уверяет, что это провальный
проект, что он не полетит?
436
00:28:44,152 --> 00:28:46,546
Как это не полетит?
Мы заставим его полететь!
437
00:28:47,290 --> 00:28:49,581
Панир был так близок к разгадке.
438
00:28:49,753 --> 00:28:52,384
Будь у него еще немного времени,
он бы все это сделал сам.
439
00:28:53,432 --> 00:28:55,865
Пусть это будет для него сюрпризом.
440
00:28:56,038 --> 00:28:58,568
Он взлетит прямо перед его окном...
441
00:28:58,724 --> 00:29:01,786
...а мы будем наблюдать его реакцию
снизу через этот монитор.
442
00:29:01,814 --> 00:29:03,125
Это просто балласт!
443
00:29:03,588 --> 00:29:05,705
Если мы сделаем этот проект,
то кто займется нашими?
444
00:29:05,757 --> 00:29:10,099
Нас уже затопили все эти семинары,
тесты, контрольные работы!
445
00:29:10,134 --> 00:29:11,973
По 42 экзамена в каждом семестре!
446
00:29:12,454 --> 00:29:13,479
Эй, Сентил!
447
00:29:13,862 --> 00:29:17,397
Дай мне руку... Положи ее на сердце...
448
00:29:17,473 --> 00:29:19,532
...и повторяй: все хорошо, все хорошо.
449
00:29:20,100 --> 00:29:22,252
Все хорошо, все хорошо...
450
00:29:22,335 --> 00:29:23,844
ВСЕ хорошо!
451
00:29:24,332 --> 00:29:25,942
ВСЕ хорошо.
- Да.
452
00:29:26,415 --> 00:29:29,243
Свами Пари-ананда
повторяет новую мантру.
453
00:29:29,683 --> 00:29:30,636
Что это значит?
454
00:29:30,688 --> 00:29:32,362
"Все хорошо" - это значит,
что все к лучшему.
455
00:29:32,850 --> 00:29:35,254
Позитивная мысль о том,
что нас ждет только хорошее.
456
00:29:35,386 --> 00:29:38,738
У нас в городке был привратник,
его звали Мариам Сюзаи.
457
00:29:39,301 --> 00:29:45,280
Как только наступала ночь,
он начинал кричать: "Все хорошо-о-о-о-о!"

Скриншот c названием фильма

Скриншоты

Скачать

Скачать торрент! Друг / Nanban (С. Шанкар / S. Shankar) [2012, Индия, Драма, мелодрама, комедия, DVDRip] Sub Rus

Как скачивать? · Что такое торрент? · Рейтинг и ограничения

Сайт не распространяет и не хранит электронные версии произведений, а лишь предоставляет доступ к создаваемому пользователями каталогу ссылок на торрент-файлы, которые содержат только списки хеш-сумм

[Профиль] [ЛС]
Показать сообщения:    
Ответить на тему

Текущее время: Сегодня 22:13

Часовой пояс: GMT + 4



Вы не можете начинать темы
Вы не можете отвечать на сообщения
Вы не можете редактировать свои сообщения
Вы не можете удалять свои сообщения
Вы не можете голосовать в опросах
Вы не можете прикреплять файлы к сообщениям
Вы не можете скачивать файлы