Наперегонки со временем / Waqt: The Race Against Time (Випал Амрутлал Шах / Vipul Amrutlal Shah) [2005, Индия, Драма, мелодрама, DVDRip] DVO

Ответить на тему
 
Автор Сообщение

user ®

Стаж: 12 лет

Сообщений: 15125

Пост Пост: #1 от 23-Июл-2013 08:40

[Цитировать]

Наперегонки со временем / Waqt: The Race Against Time
-Страна: Индия
Жанр: Драма, мелодрама
Год выпуска: 2005
Продолжительность: 02:32:00-Язык: Хинди
Перевод: Профессиональный (двухголосый, закадровый)
Cубтитры: Нет-Режиссер: Випал Амрутлал Шах / Vipul Amrutlal Shah-В ролях: Амитабх Баччан, Акшай Кумар, Приянка Чопра, Шефали Шетти, Боман Ирани, Раджпал Ядав, Бенджамин Гилани, Асавари Джоши, Раджив Мехта, Хемант Панди-Описание: Любовь Ишвара Шаравата, владельца компании по производству игрушек, к сыну Адитьи настолько велика, что он долгое время прощает ему все прегрешения, как бы серьезны они не были. Но однажды и его терпению приходит конец и он выселяет Адитью в пристройку к дому. Тот воспринимает это за шутку, а когда же окончательно осознает, что отлучен от родного дома, кажется, что примирение уже не наступит никогда...-- | Трейлер--Качество видео: DVDRip
Исходник: DVD9 R2
Формат видео: AVI-Видео: XVID, 720x304, 25 fps, 1231 Kbps
Аудио: MP3, 48 kHz, 2.0 stereo, 128 Kbps--Риппер: soso4eg-Спасибо Th4K за исходный DVD9 R2 Gustom-- -
-

Скриншот с названием


-

Скриншоты


-

MI

Общее
Полное имя : C:\INDIYA\Naperegonki.so.vremenem.2005.DVDRip.XviD.soso4eg.avi
Формат : AVI
Формат/Информация : Audio Video Interleave
Размер файла : 1,45 Гбайт
Продолжительность : 2 ч. 32 м.
Общий поток : 1365 Кбит/сек
Название фильма : Naperegonki.so.vremenem.2005.DVDRip.XviD.soso4eg
Программа кодирования : VirtualDubMod 1.5.10.2 (build 2540/release)
Видео
Идентификатор : 0
Формат : MPEG-4 Visual
Профиль формата : Advanced Simple@L5
Параметр BVOP формата : 2
Параметр QPel формата : Нет
Параметр GMC формата : Без точки перехода
Параметр матрицы формата : Default (H.263)
Идентификатор кодека : XVID
Идентификатор кодека/Подсказка : XviD
Продолжительность : 2 ч. 32 м.
Битрейт : 1231 Кбит/сек
Ширина : 720 пикселей
Высота : 304 пикселя
Соотношение сторон : 2,35:1
Частота кадров : 25,000 кадров/сек
Цветовое пространство : YUV
Субдискретизация насыщенности : 4:2:0
Битовая глубина : 8 бит
Тип развёртки : Прогрессивная
Метод сжатия : С потерями
Бит/(Пиксели*Кадры) : 0.225
Размер потока : 1,31 Гбайт (90%)
Библиотека кодирования : XviD 1.2.1 (UTC 2008-12-04)
Аудио
Идентификатор : 1
Формат : MPEG Audio
Версия формата : Version 1
Профиль формата : Layer 3
Идентификатор кодека : 55
Идентификатор кодека/Подсказка : MP3
Продолжительность : 2 ч. 28 м.
Вид битрейта : Постоянный
Битрейт : 128 Кбит/сек
Каналы : 2 канала
Частота : 48,0 КГц
Метод сжатия : С потерями
Размер потока : 136 Мбайт (9%)
Выравнивание : Соединение по промежуткам
Продолжительность промежутка : 41 мс. (1,03 видеокадр)
Время предзагрузки промежутка : 504 мс.
Библиотека кодирования : LAME3.98r
Настройки программы : -m s -V 4 -q 2 -lowpass 17 -b 128

-
-
Скачать

Скачать торрент! Наперегонки со временем / Waqt: The Race Against Time (Випал Амрутлал Шах / Vipul Amrutlal Shah) [2005, Индия, Драма, мелодрама, DVDRip] DVO

Как скачивать? · Что такое торрент? · Рейтинг и ограничения

Сайт не распространяет и не хранит электронные версии произведений, а лишь предоставляет доступ к создаваемому пользователями каталогу ссылок на торрент-файлы, которые содержат только списки хеш-сумм

[Профиль] [ЛС]
Показать сообщения:    
Ответить на тему

Текущее время: Сегодня 00:22

Часовой пояс: GMT + 4



Вы не можете начинать темы
Вы не можете отвечать на сообщения
Вы не можете редактировать свои сообщения
Вы не можете удалять свои сообщения
Вы не можете голосовать в опросах
Вы не можете прикреплять файлы к сообщениям
Вы не можете скачивать файлы