Друг бедных / Dost Garibon Ka (С.П. Диксит / C.P. Dixit) [1989, Индия, Мелодрама, DVDRip] [Полная версия] Dub

Ответить на тему
 
Автор Сообщение

user ®

Стаж: 12 лет

Сообщений: 15124

Пост Пост: #1 от 23-Июл-2013 08:40

[Цитировать]

Друг бедных / Dost Garibon Ka / Полная версия
Страна: Индия
Жанр: Мелодрама
Год выпуска: 1989
Продолжительность: 02:20:25
Перевод: Профессиональный (дублированный) к/ст им. М. Горького
Cубтитры: нет
Режиссер: С.П. Диксит / C.P. Dixit
В ролях: Говинда, Нилам, Сумит Сайгал, Раза Мурад, Сатиш Шах, Анджана Мумтаз, Дан Дханоа, Виджай Арора, Ом Шивпури, Раджендра Натх, Юнус Парвез, Камал Капур, Джанкидас, Аша Шарма, Сунил Дхаван, Парикшат Сахни, Кришнакант, Суджит Кумар
Описание: Несчастья друзей-бедняков уже давно вызывали протест в благородной душе Виджая. Великая Любовь и большое несчастье превратили его в борца с несправедливостью. Эта борьба и прекрасная история любви сделали его легендой в сердцах людей...
Доп. информация: Релиз
Риппер, синхронизация аудио: Василисса
В вырезанных эпизодах перевод отсутствует.
Сэмпл: http://multi-up.com/887152
Качество видео: DVDRip
Формат видео: AVI
Видео: XviD MPEG-4, 512x384 (1.33:1), 29.970 fps, 1900 kbps avg
Аудио: AC3 Dolby Digital, 44.100 kHz, 2/0 (L,R) ch, 192.00 kbps avg

MediaInfo

General
Complete name : D:\Drug.Bednih.1989.DVDRip.XviD.BwTorrents.avi
Format : AVI
Format/Info : Audio Video Interleave
Format profile : OpenDML
File size : 2.06 GiB
Duration : 2h 20mn
Overall bit rate : 2 101 Kbps
Writing application : VirtualDubMod 1.5.10.2 (build 2540/release)
Writing library : VirtualDubMod build 2540/release
Video
ID : 0
Format : MPEG-4 Visual
Format profile : AdvancedSimple@L5
Format settings, BVOP : Yes
Format settings, QPel : No
Format settings, GMC : No warppoints
Format settings, Matrix : Custom
Codec ID : XVID
Codec ID/Hint : XviD
Duration : 2h 20mn
Bit rate : 1 894 Kbps
Width : 512 pixels
Height : 384 pixels
Display aspect ratio : 4/3
Frame rate : 29.970 fps
Resolution : 24 bits
Colorimetry : 4:2:0
Scan type : Progressive
Bits/(Pixel*Frame) : 0.321
Stream size : 1.86 GiB (90%)
Writing library : XviD 1.2.1 (UTC 2008-12-04)
Audio
ID : 1
Format : AC-3
Format/Info : Audio Coding 3
Codec ID : 2000
Duration : 2h 20mn
Bit rate mode : Constant
Bit rate : 192 Kbps
Channel(s) : 2 channels
Channel positions : L R
Sampling rate : 44.1 KHz
Stream size : 193 MiB (9%)
Alignment : Split accross interleaves
Interleave, duration : 33 ms (1.00 video frame)
Interleave, preload duration : 500 ms

Скриншоты

Скачать

Скачать торрент! Друг бедных / Dost Garibon Ka (С.П. Диксит / C.P. Dixit) [1989, Индия, Мелодрама, DVDRip] [Полная версия] Dub

Как скачивать? · Что такое торрент? · Рейтинг и ограничения

Сайт не распространяет и не хранит электронные версии произведений, а лишь предоставляет доступ к создаваемому пользователями каталогу ссылок на торрент-файлы, которые содержат только списки хеш-сумм

[Профиль] [ЛС]
Показать сообщения:    
Ответить на тему

Текущее время: Сегодня 21:15

Часовой пояс: GMT + 4



Вы не можете начинать темы
Вы не можете отвечать на сообщения
Вы не можете редактировать свои сообщения
Вы не можете удалять свои сообщения
Вы не можете голосовать в опросах
Вы не можете прикреплять файлы к сообщениям
Вы не можете скачивать файлы