Зловещие мертвецы: Черная книга / Evil Dead (Федерико Альварес / Federico Alvarez) [2013, США, Ужасы, BDRip-AVC] Dub (Лицензия) + Sub Rus

Ответить на тему
 
Автор Сообщение

user ®

Стаж: 7 лет 7 месяцев

Сообщений: 20008

Пост Пост: #1 от 23-Июл-2013 08:40

[Цитировать]

Зловещие мертвецы: Черная книгаEvil Dead«Уже не остановить»
Страна: США
Жанр: Ужасы
Год выпуска: 2013
Продолжительность: 01:31:18
Перевод: Профессиональный (дублированный) [Лицензия]
Cубтитры: русские,английские
Оригинальная аудиодорожка: нет
Режиссер: Федерико Альварес / Federico Alvarez
В ролях: Джейн Леви, Шайло Фернандес, Лу Тэйлор Пуччи, Джессика Лукас, Элизабет Блэкмор, Феникс Коннолли, Джим МакЛарти, Сиан Дэвис, Стефен Баттерворф, Карл Виллетц
Описание: Молодая женщина Миа, пытающаяся избавиться от наркозависимости, отправляется вместе с братом и группой друзей в удалённую хижину, где они открывают Книгу мёртвых, что приводит к опасности и ужасу.
Доп. информация:

Качество видео: BDRip-AVC | Зловещие мертвецы: Черная книга / Evil Dead(2013) 1080p BD-Remux|
Формат видео: MKV
Видео: 1032 x 432 (2:40:1) at 23.976 fps AVC at 1841 Кбит/сек
Аудио: 48,0 КГц AC-3 at 448 Кбит/сек 6 канала(ов)
Формат субтитров: softsub (SRT)
Доп. информация о субтитрах: отключаемые

MediaInfo

Уникальный идентификатор : 201675778230270005962780700866350077725 (0x97B9578F9D374EA2B331E172538AD71D)
Полное имя : C:\Users\иван\Documents\Zona Download\Zloveshwie.Mertvecy.Chernaja.Kniga.2013.D.BDRip.x264.potroks..mkv
Формат : Matroska
Версия формата : Version 2
Размер файла : 1,46 Гбайт
Продолжительность : 1 ч. 31 м.
Общий поток : 2290 Кбит/сек
Название фильма : -=POTROKS=-
Дата кодирования : UTC 2013-07-16 21:10:46
Программа кодирования : mkvmerge v5.9.0 ('On The Loose') built on Dec 15 2012 16:39:58
Библиотека кодирования : libebml v1.3.0 + libmatroska v1.4.0
Идентификатор : 1
Формат : AVC
Формат/Информация : Advanced Video Codec
Профиль формата : High@L4.1
Параметр CABAC формата : Да
Параметр ReFrames формата : 10 кадров
Идентификатор кодека : V_MPEG4/ISO/AVC
Продолжительность : 1 ч. 31 м.
Битрейт : 1841 Кбит/сек
Ширина : 1032 пикселя
Высота : 432 пикселя
Соотношение сторон : 2,40:1
Режим частоты кадров : Постоянный
Частота кадров : 23,976 кадра/сек
Цветовое пространство : YUV
Субдискретизация насыщенности : 4:2:0
Битовая глубина : 8 бит
Тип развёртки : Прогрессивная
Бит/(Пиксели*Кадры) : 0.172
Размер потока : 1,15 Гбайт (78%)
Заголовок : Evil Dead
Библиотека кодирования : x264 core 125 r2208 d9d2288
Настройки программы : cabac=1 / ref=10 / deblock=1:-3:-2 / analyse=0x3:0x133 / me=umh / subme=11 / psy=1 / psy_rd=1.03:0.00 / mixed_ref=1 / me_range=48 / chroma_me=1 / trellis=2 / 8x8dct=1 / cqm=0 / deadzone=21,11 / fast_pskip=0 / chroma_qp_offset=-2 / threads=9 / lookahead_threads=1 / sliced_threads=0 / nr=0 / decimate=1 / interlaced=0 / bluray_compat=0 / constrained_intra=0 / bframes=11 / b_pyramid=2 / b_adapt=2 / b_bias=0 / direct=3 / weightb=1 / open_gop=0 / weightp=2 / keyint=240 / keyint_min=23 / scenecut=40 / intra_refresh=0 / rc_lookahead=150 / rc=2pass / mbtree=1 / bitrate=1841 / ratetol=1.0 / qcomp=0.70 / qpmin=0 / qpmax=69 / qpstep=4 / cplxblur=20.0 / qblur=0.5 / vbv_maxrate=20000 / vbv_bufsize=20000 / nal_hrd=none / ip_ratio=1.35 / aq=1:0.90
Язык : English
Default : Да
Forced : Нет
Идентификатор : 2
Формат : AC-3
Формат/Информация : Audio Coding 3
Расширение режима : CM (complete main)
Параметр Endianness формата : Big
Идентификатор кодека : A_AC3
Продолжительность : 1 ч. 31 м.
Вид битрейта : Постоянный
Битрейт : 448 Кбит/сек
Каналы : 6 каналов
Расположение каналов : Front: L C R, Side: L R, LFE
Частота : 48,0 КГц
Битовая глубина : 16 бит
Метод сжатия : С потерями
Размер потока : 293 Мбайт (20%)
Заголовок : Dub | DD 5.1 @ 448 kbps - BD CEE
Язык : Russian
Default : Да
Forced : Нет
Идентификатор : 3
Формат : UTF-8
Идентификатор кодека : S_TEXT/UTF8
Идентификатор кодека/Информация : UTF-8 Plain Text
Заголовок : Blu-ray CEE
Язык : Russian
Default : Нет
Forced : Нет
Идентификатор : 4
Формат : UTF-8
Идентификатор кодека : S_TEXT/UTF8
Идентификатор кодека/Информация : UTF-8 Plain Text
Язык : English
Default : Нет
Forced : Нет
Идентификатор : 5
Формат : UTF-8
Идентификатор кодека : S_TEXT/UTF8
Идентификатор кодека/Информация : UTF-8 Plain Text
Заголовок : SDH
Язык : English
Default : Нет
Forced : Нет
Идентификатор : 6
Формат : UTF-8
Идентификатор кодека : S_TEXT/UTF8
Идентификатор кодека/Информация : UTF-8 Plain Text
Заголовок : SDH-COLORED
Язык : English
Default : Нет
Forced : Нет

Скриншот c названием фильма

Скриншоты

Скачать

Скачать торрент!

Как скачивать? · Что такое торрент? · Рейтинг и ограничения

Сайт не распространяет и не хранит электронные версии произведений, а лишь предоставляет доступ к создаваемому пользователями каталогу ссылок на торрент-файлы, которые содержат только списки хеш-сумм

[Профиль] [ЛС]
Показать сообщения:    
Ответить на тему

Текущее время: Сегодня 09:47

Часовой пояс: GMT + 4



Вы не можете начинать темы
Вы не можете отвечать на сообщения
Вы не можете редактировать свои сообщения
Вы не можете удалять свои сообщения
Вы не можете голосовать в опросах
Вы не можете прикреплять файлы к сообщениям
Вы не можете скачивать файлы