Офицер ранен / Officer Down (Брайан А Миллер / Brian A Miller) [2013, США, драма, криминал, BDRip 720p] VO den904 + Sub Eng + Original Eng

Ответить на тему
 
Автор Сообщение

user ®

Стаж: 7 лет 7 месяцев

Сообщений: 20008

Пост Пост: #1 от 23-Июл-2013 01:29

[Цитировать]

Офицер ранен / Officer Down- Страна: США
Студия: Jeff Most Productions, Most Films
Жанр: драма, криминал
Год выпуска: 2013
Продолжительность: 1:33:23
Перевод: Одноголосый закадровый den904, перевод Janetta
Cубтитры: английские
Оригинальная аудиодорожка: английская
Режиссер: Брайан А Миллер / Brian A Miller
В ролях: Стивен Дорфф (Det. David 'Cal' Callahan), Доминик Пёрселл (Royce Walker), Олег Тактаров (Oleg Emelyanenko), Джеймс Вудс (Captain Verona), Стивен Лэнг (Lieutenant Jake 'Lieu' LaRussa), Дэвид Бореаназ (Det. Les Scanlon), Уолтон Гоггинс (The Angel / Det. Logue), Томми Флэнаган (Father Reddy), Элизабет Рём (Alexandra Callahan), АннаЛинн МакКорд (Zhanna Dronov), Лора Харрис (Ellen Logue), Джонни Месснер (McAlister)
Описание: Детектив расследует серию изнасилований и убийств молодых девушек. У него самого довольно темное прошлое: когда-то он много пил, ходил по русским притонам с проститутками, попал из-за этого в мафиозную перестрелку, после чего кардинально поменял взгляды на жизнь и теперь старается быть примерным семьянином. Но собственное расследование заводит его не туда, и он начинает понимать, что его информаторы преследуют какие-то личные цели.

Тип релиза: BDRip 720p [CHD]
Контейнер: MKV
Видео: 1280x544 (2,35:1), 25,000 fps, x264 ~4600 kbps avg, 0.264 bit/pixel
Аудио 1: 48 kHz, AC3 Dolby Digital, 3/2 (L,C,R,l,r) + LFE ch, 448 kbps (русская)
Аудио 2: 48 kHz, Digital Theater Systems, 3/2 (L,C,R,l,r) + LFE ch, 768 kbps (английская)
Формат субтитров: softsub (SRT)
Чаптеры: есть

рейтинг MPAA: лицам до 17 лет обязательно присутствие взрослого

MediaInfo

ОбщееУникальный идентификатор : 249464959304091438124659350434547611296 (0xBBAD3419E17A79EEA633654B86E5B6A0)Полное имя : \Officer.Down.2013.BluRay.720p.DTS.x264.mkvФормат : MatroskaВерсия формата : Version 2Размер файла : 3,79 ГбайтПродолжительность : 1 ч. 33 м.Общий поток : 5814 Кбит/секДата кодирования : UTC 2013-07-22 17:18:18Программа кодирования : mkvmerge v4.5.0 ('Speed of Light') сборка от Feb 1 2011 02:10:32Библиотека кодирования : libebml v1.2.0 + libmatroska v1.1.0
ВидеоИдентификатор : 1Формат : AVCФормат/Информация : Advanced Video CodecПрофиль формата : High@L4.1Параметр CABAC формата : ДаПараметр ReFrames формата : 10 кадровИдентификатор кодека : V_MPEG4/ISO/AVCПродолжительность : 1 ч. 33 м.Битрейт : 4600 Кбит/секШирина : 1280 пикселейВысота : 544 пикселяСоотношение сторон : 2,35:1Режим частоты кадров : ПостоянныйЧастота кадров : 25,000 кадров/секЦветовое пространство : YUVСубдискретизация насыщенности : 4:2:0Битовая глубина : 8 битТип развёртки : ПрогрессивнаяБит/(Пиксели*Кадры) : 0.264Размер потока : 2,92 Гбайт (77%)Заголовок : Officer.Down.2013.BluRay.720p.DTS.x264-CHDБиблиотека кодирования : x264 core 125 r2208 d9d2288Настройки программы : cabac=1 / ref=10 / deblock=1:-3:-3 / analyse=0x3:0x113 / me=umh / subme=10psy=1 / psy_rd=1.00:0.05 / mixed_ref=1 / me_range=32 / chroma_me=1 / trellis=2 / 8x8dct=1 / cqm=0 / deadzone=21,11fast_pskip=0 / chroma_qp_offset=-2 / threads=8 / lookahead_threads=1 / sliced_threads=0 / nr=0 / decimate=1interlaced=0 / bluray_compat=0 / constrained_intra=0 / bframes=4 / b_pyramid=2 / b_adapt=2 / b_bias=0 / direct=3weightb=1 / open_gop=0 / weightp=2 / keyint=250 / keyint_min=25 / scenecut=40 / intra_refresh=0 / rc=2pass / mbtree=0bitrate=4600 / ratetol=1.0 / qcomp=0.70 / qpmin=0 / qpmax=69 / qpstep=4 / cplxblur=20.0 / qblur=0.5 / ip_ratio=1.40pb_ratio=1.30 / aq=2:1.00Язык : EnglishDefault : ДаForced : Нет
Аудио #1Идентификатор : 2Формат : AC-3Формат/Информация : Audio Coding 3Расширение режима : CM (complete main)Параметр Endianness формата : BigИдентификатор кодека : A_AC3Продолжительность : 1 ч. 33 м.Вид битрейта : ПостоянныйБитрейт : 448 Кбит/секКаналы : 6 каналовРасположение каналов : Front: L C R, Side: L R, LFEЧастота : 48,0 КГцБитовая глубина : 16 битМетод сжатия : С потерямиРазмер потока : 299 Мбайт (8%)Заголовок : ac3 5.1 448 kbpsЯзык : RussianDefault : ДаForced : Нет
Аудио #2Идентификатор : 3Формат : DTSФормат/Информация : Digital Theater SystemsРежим : 16Параметр Endianness формата : BigИдентификатор кодека : A_DTSПродолжительность : 1 ч. 33 м.Вид битрейта : ПостоянныйБитрейт : 768 Кбит/секКаналы : 6 каналовРасположение каналов : Front: L C R, Side: L R, LFEЧастота : 48,0 КГцБитовая глубина : 24 битМетод сжатия : С потерямиРазмер потока : 513 Мбайт (13%)Заголовок : dts 5.1 768 kbpsЯзык : EnglishDefault : НетForced : Нет
ТекстИдентификатор : 4Формат : UTF-8Идентификатор кодека : S_TEXT/UTF8Идентификатор кодека/Информация : UTF-8 Plain TextЗаголовок : Sub-fullЯзык : EnglishDefault : НетForced : Нет
Меню00:00:00.000 : Chapter 100:06:09.208 : Chapter 200:15:32.042 : Chapter 300:24:21.583 : Chapter 400:32:29.917 : Chapter 500:40:23.750 : Chapter 600:52:29.917 : Chapter 700:59:16.125 : Chapter 801:08:09.919 : Chapter 901:15:23.352 : Chapter 1001:23:57.741 : Chapter 11

Видеоряд от CHD

±°°°°°°°°°°±°°°°°°°°°°°°°°°°°°°°°°°°°°°°°°°°°°°°°°°°°°°°°°°°°°°°°°°°°°°°°°°±±±±±°°°°°±°°°±°°°°°°°°°°°°°°°°°°°°°°°°°ЬЬ°°°?ЬЬ°°°°°°°°°°°°°°°°°°°°°°°°°°°°°°°°±±±±°°°°±І±°°°°°°°°°°°°°°°°°°°°°°°ЬЬІЫЫЫЫ°°°°°ЫЫЫЫІЬЬ°°°°°°°°°°°°°°°°°°°°°°°°°°°°±±±°±±ІІЫІІ±±°°°°°°°°°°°°°°ЬЬІ°ЬЫЫЫЫЫЫЫІ°°°°°ІЫЫЫЫЫЫЫЬ°ІЬЬ°°°°°°°°°°°°°°°°°°°°°°°±±°°°°±І±°°°°°°°°°°°°°°°ЬЫЫЫЫ°°ІЫЫЫЫЫЭ°°°°°°°ЫЫЫЫЫЫІ°°ЫЫЫЫЬ°°°°°°°°°°°°°°°°°°°°°°±°°°°°±°°°°°°°°°°°°°°°ЫЫЫЫЫЫЫ°°ЫЫЫЫЫЭ°°°°°°°ЫЫЫЫЫЫ°°ЫЫЫЫЫЫЫ°°°°°°°°°°°°°°°°°°°°°±°°°°°°°±°°°°°°°°°°°ЬЫЫЫЫЫЫЫЫІ°ЫЫЫЫЫЭ°°°°°°°ЫЫЫЫЫЫ°ІЫЫЫЫЫЫЫЫЬ°°°°°°°°°°°°°°°°°°°±°°°±°°°°°°°°°°°°°°°ЫЫЫЫЫЫЫЫЫЫ°ЫЫЫЫЫЭ°°°°°°°ЫЫЫЫЫЫ°ЫЫЫЫЫЫЫЫЫЫ°°°°°°°°°°°°°°°°°°°±°°°°°°°°°°°°°°°°°°ЫЫЫЫЫЯ°°ІЫЫ°°ЫЫЫЫЭ°°°°°°°ЫЫЫЫЫ°°ЫЫЫЫЭЯЫЫЫЫЫ°°°°°°°°°°°°°°°°°°±°°°°°°°°°°°°°°°°ІЫЫЫЫЯ°°°°°ЯЫІ°ЫЫЫЫЭ°°°°°°°ЫЫЫЫЫ°ЮЫЯЫЫЭ°°ЯЫЫЫЫІ°°°°°°°°°°°°°°°°±°°°°°°°°°°°°°°°°ЫЫЫЫ°°°°°°°°Я°°ІЫЫЫЭ°°°°°°°ЫЫЫЭІ°°ЯІЫЫЭ°°°°ЫЫЫЫ°°°°°°°°°°°°°°°°±°°°°°°°°°°°°°°°ІЫЫЫ°°°°°°°°°°°°°ЫЫЫЭ°°°°°°°ЫЫЫЭ°°°°±ЫЫЭ°°°°°ЫЫЫІ°°°°°°°°°°°°°°°±°°°°°°°°°°°°°°°ЫЫЫІ°°°°°°°°°°°°°ЫЫЫЫЬ°°°°°ЬЫЫЫЭ°°°°°ЫЫЭ°°°°°ІЫЫЫ°°°°°°°°°°°°°°°±°°°°°°°°°°°°°°ЫЫЫЭ°°°°°°°°°°°°°°ЫЫЫЫЫЫЫЫЫЫЫЫЫЫЭ°°°°°ЫЫЭ°°°°°°ЫЫЫЭ°°°°°°°°°°°°°°±°°°°°°°°°°°°°°ЫЫЫЭ°°°°°°°°°°°°°°ЫЫЫЫЫЫЫЫЫЫЫЫЫЫЭ°°°°°ЫЫЭ°°°°°°ЫЫЫЭ°°°°°°°°°°°°°°±°°°°°°°°°°°°°°ЫЫЫЭ°°°°°°°°°°°°°°ЫЫЫЫЫЯ°°°°ІЫЫЫЭ°°°°°ЫЫЭ°°°°°°ЫЫЫЭ°°°°°°°°°°°°°°±°°°°°°°°°°°°°°ЫЫЫЭ°°°°°°°°°°°°°°ЫЫЫЫІ°°°°°°ЫЫЫЭ°°°°°ЫЫЭ°°°°°°ЫЫЫЭ°°°°°°°±°°°°°°±°°°°°°°°°°°°°°ЫЫЫЭ°°°°°°°°°°°°°°ЫЫЫЭ°°°°°°°ЫЫЫЭ°°°°°ЫЫЭ°°°°°°ЫЫЫЭ°°°°±°°°°°°°°°±°°°°°°°°°°°°°°ІЫЫЫІ°°°°°°°°°°°°°ЫЫЫЭ°°°°°°°ЫЫЫЭ°°°°°ЫЫЭ°°°°°ІЫЫЫІ°°°°°°°±°°°°°°±°°°°°°°°°°°°°°°ЫЫЫЫІ°°°°°°°°°°°°ЫЫЫЭ°°°°°°°ЫЫЫЭ°°°°±ЫЫЭ°°°°ІЫЫЫЫ°°°°°°°°±°°°°°°±°°°°°°°°°°°°°°°°ЫЫЫЫЬ°°°°°°°Ь°°ІЫЫЫЫІ°°°°°ІЫЫЫЫІ°°ЬЮЫЫЭ°°°ЬЫЫЫЫ°°°°°°°°±І±°°°°°±°°°°°°°°°°°°°°°°ЯЫЫЫЫЫ°°°°°ЬЫІ°ЫЫЫЫЫЫ°°°°°ЫЫЫЫЫЫ°ЮЫЫЫЫЭ°°ЫЫЫЫЫЯ°°°°°±±ІІЫІІ±±°±±°°°°°°°°°°°°°°°°°ЯЫЫЫЫЫЬЬ°ЬЫЫ°°ЫЫЫЫЫЭ°°°°°ЫЫЫЫЫЫ°°ЫЫЫЫЭЬЫЫЫЫЫЯ°°°°°°°°°±І±°°°°°±°°°°°°°°°°°°°°°°°°ЯЫЫЫЫЫЫЫЫЫЫ°°ЫЫЫЫЫЭ°°°°°ЫЫЫЫЫЫ°°ЫЫЫЫЫЫЫЫЫЫЯ°°°°°°°°°°°±°°°°°°±°°°°°°°°°°°°°°°°°°°°ЫЫЫЫЫЫЫЫІ°ІЫЫЫЫЫЭ°°°°°ЫЫЫЫЫЫІ°ІЫЫЫЫЫЫЫЫ°°°°°°°°°°°°±°°°°°°°±°°°°°°°°°°°°°°°°°°°°°ІЫЫЫЫЫЫ°°ЫЫЫЫЫЫЭ°°°°°ЫЫЫЫЫЫЫ°°ЫЫЫЫЫЫЫ°°°°°°°°°°°°°°°°±°°°°±°°°°°°°°°°°°°°°°°°°°°°ЯЫЫЫЫ°°ІЫЫЫЫЫЫЭ°°°°°ЫЫЫЫЫЫЫІ°°ЫЫЫЫЯ°°°°°°°°°°°°±°°°°°°±°°±°°°°°°°°°°°°°°°°°°°°°°°°ЯЯІ°ЯЫЫЫЫЫЫЫЭ°°°°°ЫЫЫЫЫЫЫЫЯ°ІЯЯ°°°°°°°°°°°°°°°°°°°°°°°°±°°°°°°°°°°°°°°°°°°°°°°°°°°°°°°ЯЯЯЫЫЫЯ°°°°°ЯІЫЫЯЯЯ°°°°°°°°°°°°°°°°°°°°°°°°°°°°°°±°°°°°°°°°°°°°°°°°°°°°°°°°°°°°°°°°°°°°°°°°°°°°°°°°°°°°°°°°°°°°°°°°°°°°°°°°°°°°°°±°°°°±±±±±±±±±±±±±±±±±±±±±±±±±±±±±±±±±±±±±±±±±±±±±±±±±±±±±±±±±±±±±±±±±±±±±±±±±±±±°°°±±±±±±±±±±±±±±±±±±±±±±±±±Classic High Definition±±±±±±±±±±±±±±±±±±±±±±±±±±±±°°±±±±±±±±±±±±±±±±±±±±±±±±±±±±±±±±±±±±±±±±±±±±±±±±±±±±±±±±±±±±±±±±±±±±±±±±±±±±°±±±±±±±±±±±±±±±±±±±±±±±±±±±±±±Proudly Presents±±±±±±±±±±±±±±±±±±±±±±±±±±±±±±±±±±±±±±±±±±±±±±±±±±±±±±±±±±±±±±±±±±±±±±±±±±±±±±±±±±±±±±±±±±±±±±±±±±±±±±±±±±
Officer.Down.2013.BluRay.720p.DTS.x264-CHD
°±°±°±°°°°°°°°°°°°°°°°°°°°°°°°°°°°°°°°°°°°°°°°°°°°°°°°°°°°°°°°°°°°°°°°°°°°°°°°?Officer.Down.2013.BluRay.720p.DTS.x264-CHDRELEASE DATE....: 08/06/2013THEATRE DATE....: 2013iMDB URL........: http://www.imdb.com/title/tt0065922iMDB RATiNG.....: 5.4/10 2,442 votesGENRE...........: Crime | DramaSOURCE .........: Officer Down 2013 BluRay 1080p AVC DTS-HD MA5.1-CHDBitsViDEO BiTRATE...: x264 L4.1 High @ 4600 KbpsFRAME RATE......: 23.976 fpsAUDiO 1.........: English DTS-HDMA core 5.1 768KbpsRUNTiME.........: 1:33:23 (h:m:s)ASPECT RATiO....: 2.35 : 1RESOLUTiON......: 1280 X 544SUBTiTLES.......: N/AFilE SiZE.......: 3.5GENCODER.........: CHD

Скриншоты


Скачать

Скачать торрент!

Как скачивать? · Что такое торрент? · Рейтинг и ограничения

Сайт не распространяет и не хранит электронные версии произведений, а лишь предоставляет доступ к создаваемому пользователями каталогу ссылок на торрент-файлы, которые содержат только списки хеш-сумм

[Профиль] [ЛС]
Показать сообщения:    
Ответить на тему

Текущее время: Сегодня 08:05

Часовой пояс: GMT + 4



Вы не можете начинать темы
Вы не можете отвечать на сообщения
Вы не можете редактировать свои сообщения
Вы не можете удалять свои сообщения
Вы не можете голосовать в опросах
Вы не можете прикреплять файлы к сообщениям
Вы не можете скачивать файлы