Горячие головы 2 / Hot Shots! Part Two (Джим Эбрэхэмс / Jim Abrahams) [1993, США, Боевик, комедия, BDRip 1080p] Dub + 3х AVO (Михалев, Живов, Горчаков) + Original Eng

Ответить на тему
 
Автор Сообщение

user ®

Стаж: 7 лет 7 месяцев

Сообщений: 20008

Пост Пост: #1 от 22-Июл-2013 18:40

[Цитировать]

Горячие головы 2 / Hot Shots! Part Two
Страна: США
Жанр: Боевик, комедия
Год выпуска: 1993
Продолжительность: 01:28:33
Перевод: Профессиональный (дублированный)
Перевод 2: Авторский (одноголосый закадровый-Михалев)
Перевод 3: Авторский (одноголосый закадровый-Живов)
Перевод 4: Авторский (одноголосый закадровый-Горчаков)
Cубтитры: нет
Оригинальная аудиодорожка: английский
Режиссер: Джим Эбрэхэмс / Jim Abrahams
В ролях: Чарли Шин, Валерия Голино, Ллойд Бриджес, Бренда Бэкки, Мигель Феррер, Ричард Кренна, Райан Стайлз, Джерри Халева, Майкл Кольяр, Роуэн Аткинсон, Дэвид Вол, Митч Райан, Розмари Джонстон, Бен Лемон, Бак МакДансер, Ларри Линдси, Эд Бехелер, Дэниэл Т. Хили, Джей Кох, Дайн Кобаяси, Боб Вила, Стюарт Прауд Эгил Грант, Дж.Д. ДеКранис, Боб Леджионер, Кори Рэнд, Тони Эдвардс, Джеймс Лью, Джералд Окамура, Чи Муи Ло, Рон Питтс, Норм Комптон, Келли Коннелл, Уэйн Зац, Пэт Харви, Джозеф В. Перри, Оз Тортора, Джудит Кэхэн, Шон Тоуб, Марк Стин, Дон Милоевич, Эд Нассани, Эндрю М. Сигел, С. Рэнсом Уолрод, Джон Эскобар, Скотт Ривз, Кристофер Линдсэй, Дэниэл Херольд, Томас Темпл, Линдсэй Каф
Описание: На этот раз пилот-ас Топпер Харли, покинув службу, живет в далеком тибетском монастыре, где он нашел гармонию внутри себя, сбалансировав свой Инь и Янь. Но стране снова нужен герой. И он, с неохотой покидая полюбившихся ему монахов, возвращается на службу. Ему поручается секретное задание по спасению заложников из лап Саддама Хусейна. Но к всеобщей радости, Топпер — необычный человек, который все переворачивает с ног на голову.
Сэмпл: http://multi-up.com/885051
Тип релиза: BDRip 1080p
Контейнер: MKV
Видео: 1920*1040, 18352 Кбит/сек, 23,976 кадра/сек
Аудио 1: AC-3, 384 Кбит/сек, 2Ch, 48,0 КГц-дубляж (Киностудия им. Горького)
Аудио 2: AC-3, 192 Кбит/сек, 2Ch, 48,0 КГц-Михалев
Аудио 3: AC-3, 192 Кбит/сек, 2Ch, 48,0 КГц-Живов
Аудио 4: AC-3, 192 Кбит/сек, 2Ch, 48,0 КГц-Горчяков
Аудио 5: DTS, 1509 Кбит/сек, 4Ch, 48,0 КГц-английский

MediaInfo

Уникальный идентификатор : 172565692562941918010001055914083040200 (0x81D2F1871FEBBF7BA880BB1F207D3BC8)
Полное имя : M:\Hot.Shots.Part.Deux.1993.BluRay.1080p..mkv
Формат : Matroska
Версия формата : Version 2
Размер файла : 12,9 Гбайт
Продолжительность : 1 ч. 28 м.
Общий поток : 20,8 Мбит/сек
Название фильма : Hot Shots! Part Deux (1993) - Release for HDCLUB
Дата кодирования : UTC 2013-06-09 08:53:35
Программа кодирования : mkvmerge v5.5.0 ('Healer') built on Apr 6 2012 21:43:24
Библиотека кодирования : libebml v1.2.3 + libmatroska v1.3.0
Видео
Идентификатор : 1
Формат : AVC
Формат/Информация : Advanced Video Codec
Профиль формата : High@L4.1
Параметр CABAC формата : Да
Параметр ReFrames формата : 4 кадра
Идентификатор кодека : V_MPEG4/ISO/AVC
Продолжительность : 1 ч. 28 м.
Битрейт : 18,4 Мбит/сек
Ширина : 1920 пикселей
Высота : 1040 пикселей
Соотношение сторон : 1,85:1
Режим частоты кадров : Постоянный
Частота кадров : 23,976 кадра/сек
Цветовое пространство : YUV
Субдискретизация насыщенности : 4:2:0
Битовая глубина : 8 бит
Тип развёртки : Прогрессивная
Бит/(Пиксели*Кадры) : 0.383
Размер потока : 11,1 Гбайт (86%)
Библиотека кодирования : x264 core 130 r2273 b3065e6
Настройки программы : cabac=1 / ref=4 / deblock=1:-3:-3 / analyse=0x3:0x113 / me=umh / subme=10 / psy=1 / psy_rd=1.05:0.10 / mixed_ref=1 / me_range=48 / chroma_me=1 / trellis=2 / 8x8dct=1 / cqm=0 / deadzone=21,11 / fast_pskip=0 / chroma_qp_offset=-2 / threads=12 / lookahead_threads=1 / sliced_threads=0 / nr=0 / decimate=1 / interlaced=0 / bluray_compat=0 / constrained_intra=0 / bframes=6 / b_pyramid=2 / b_adapt=2 / b_bias=0 / direct=3 / weightb=1 / open_gop=0 / weightp=2 / keyint=250 / keyint_min=23 / scenecut=40 / intra_refresh=0 / rc_lookahead=40 / rc=2pass / mbtree=0 / bitrate=18352 / ratetol=2.0 / qcomp=0.70 / qpmin=0 / qpmax=69 / qpstep=4 / cplxblur=20.0 / qblur=0.5 / vbv_maxrate=40000 / vbv_bufsize=30000 / nal_hrd=none / ip_ratio=1.40 / pb_ratio=1.30 / aq=2:1.00
Язык : English
Default : Да
Forced : Нет
Аудио #1
Идентификатор : 2
Формат : AC-3
Формат/Информация : Audio Coding 3
Расширение режима : CM (complete main)
Параметр Endianness формата : Big
Идентификатор кодека : A_AC3
Продолжительность : 1 ч. 28 м.
Вид битрейта : Постоянный
Битрейт : 384 Кбит/сек
Каналы : 2 канала
Расположение каналов : Front: L R
Частота : 48,0 КГц
Битовая глубина : 16 бит
Метод сжатия : С потерями
Размер потока : 243 Мбайт (2%)
Заголовок : DUB Киностудия им. Горького
Язык : Russian
Default : Да
Forced : Нет
Аудио #2
Идентификатор : 3
Формат : AC-3
Формат/Информация : Audio Coding 3
Расширение режима : CM (complete main)
Параметр Endianness формата : Big
Идентификатор кодека : A_AC3
Продолжительность : 1 ч. 28 м.
Вид битрейта : Постоянный
Битрейт : 192 Кбит/сек
Каналы : 2 канала
Расположение каналов : Front: L R
Частота : 48,0 КГц
Битовая глубина : 16 бит
Метод сжатия : С потерями
Размер потока : 122 Мбайт (1%)
Заголовок : Михалев
Язык : Russian
Default : Нет
Forced : Нет
Аудио #3
Идентификатор : 4
Формат : AC-3
Формат/Информация : Audio Coding 3
Расширение режима : CM (complete main)
Параметр Endianness формата : Big
Идентификатор кодека : A_AC3
Продолжительность : 1 ч. 28 м.
Вид битрейта : Постоянный
Битрейт : 192 Кбит/сек
Каналы : 2 канала
Расположение каналов : Front: L R
Частота : 48,0 КГц
Битовая глубина : 16 бит
Метод сжатия : С потерями
Размер потока : 122 Мбайт (1%)
Заголовок : Живов
Язык : Russian
Default : Нет
Forced : Нет
Аудио #4
Идентификатор : 5
Формат : AC-3
Формат/Информация : Audio Coding 3
Расширение режима : CM (complete main)
Параметр Endianness формата : Big
Идентификатор кодека : A_AC3
Продолжительность : 1 ч. 28 м.
Вид битрейта : Постоянный
Битрейт : 192 Кбит/сек
Каналы : 2 канала
Расположение каналов : Front: L R
Частота : 48,0 КГц
Битовая глубина : 16 бит
Метод сжатия : С потерями
Размер потока : 122 Мбайт (1%)
Заголовок : Горчяков
Язык : Russian
Default : Нет
Forced : Нет
Аудио #5
Идентификатор : 6
Формат : DTS
Формат/Информация : Digital Theater Systems
Режим : 16
Параметр Endianness формата : Big
Идентификатор кодека : A_DTS
Продолжительность : 1 ч. 28 м.
Вид битрейта : Постоянный
Битрейт : 1509 Кбит/сек
Каналы : 4 канала
Расположение каналов : Front: L C R, Side: C
Частота : 48,0 КГц
Битовая глубина : 24 бит
Метод сжатия : С потерями
Размер потока : 956 Мбайт (7%)
Язык : English
Default : Нет
Forced : Да
Трейлер
Тип HD кино

Скриншоты

Скачать

Скачать торрент!

Как скачивать? · Что такое торрент? · Рейтинг и ограничения

Сайт не распространяет и не хранит электронные версии произведений, а лишь предоставляет доступ к создаваемому пользователями каталогу ссылок на торрент-файлы, которые содержат только списки хеш-сумм

[Профиль] [ЛС]
Показать сообщения:    
Ответить на тему

Текущее время: Сегодня 20:30

Часовой пояс: GMT + 4



Вы не можете начинать темы
Вы не можете отвечать на сообщения
Вы не можете редактировать свои сообщения
Вы не можете удалять свои сообщения
Вы не можете голосовать в опросах
Вы не можете прикреплять файлы к сообщениям
Вы не можете скачивать файлы