Честная игра / Fair Game (Эндрю Сайпс / Andrew Sipes) [1995, США, боевик, триллер, WEB-DL 720p] Dub + AVO (Гаврилов) + Original Eng

Ответить на тему
 
Автор Сообщение

user ®

Стаж: 7 лет 7 месяцев

Сообщений: 20008

Пост Пост: #1 от 22-Июл-2013 18:40

[Цитировать]

Честная игра / Fair Game
Страна: США
Жанр: боевик, триллер
Год выпуска: 1995
Продолжительность: 01:26:47
Перевод: Профессиональный (дублированный)
Перевод 2: Авторский (одноголосый закадровый) Гаврилов
Cубтитры: нет
Оригинальная аудиодорожка: английский
Режиссер: Эндрю Сайпс / Andrew Sipes
В ролях: Уильям Болдуин, Синди Кроуфорд, Стивен Беркофф, Кристофер МакДональд, Мигель Сандоваль, Йохан Карло, Сальма Хайек, Джон Бедфорд Ллойд, Олек Крупа, Дженетт Голдстин
Описание: Кэтрин Маккуин, красивая женщина-адвокат, сама того не подозревая, случайно вмешалась в крупную игру работников из бывшего КГБ. Ее хотят убрать как мелкую, но досадную помеху. Однако случай сводит ее с детективом Максом Киркпатриком, который тоже оказывается втянутым в «игру» и теряет трех своих друзей — полицейских.
Вместе они пытаются скрыться, но их местонахождение постоянно оказывается известным преследователям. Начинается настоящая охота, в которой еще пока не ясно кто охотник, а кто жертва.
Сэмпл: http://multi-up.com/885423
Тип релиза: WEB-DL 720p
Контейнер: MKV
Видео: 1278*720, 3909 Кбит/сек, 23,976 кадра/сек
Аудио 1: AC3, 384 Кбит/сек , 6Ch, 48,0 КГц-английский
Аудио 2: AC3, 224 Кбит/сек , 2Ch, 48,0 КГц-дубляж
Аудио 3: AC3, 224 Кбит/сек , 2Ch, 48,0 КГц-Гаврилов

MediaInfo

Уникальный идентификатор : 170450907582244460049753894875289486457 (0x803BA69404647B5DA25D096DC5420479)
Полное имя : M:\Fair Game 1995 720p WEB-DL (Andi).mkv
Формат : Matroska
Версия формата : Version 2
Размер файла : 3,05 Гбайт
Продолжительность : 1 ч. 30 м.
Общий поток : 4831 Кбит/сек
Дата кодирования : UTC 2013-07-05 13:35:14
Программа кодирования : mkvmerge v5.5.0 ('Healer') built on Apr 6 2012 21:43:24
Библиотека кодирования : libebml v1.2.3 + libmatroska v1.3.0
Видео
Идентификатор : 1
Формат : AVC
Формат/Информация : Advanced Video Codec
Профиль формата : High@L3.1
Параметр CABAC формата : Нет
Параметр ReFrames формата : 2 кадра
Параметр GOP формата : N=1
Идентификатор кодека : V_MPEG4/ISO/AVC
Продолжительность : 1 ч. 30 м.
Битрейт : 3903 Кбит/сек
Ширина : 1278 пикселей
Высота : 720 пикселей
Соотношение сторон : 16:9
Режим частоты кадров : Постоянный
Частота кадров : 23,976 кадра/сек
Цветовое пространство : YUV
Субдискретизация насыщенности : 4:2:0
Битовая глубина : 8 бит
Тип развёртки : Прогрессивная
Бит/(Пиксели*Кадры) : 0.177
Размер потока : 2,47 Гбайт (81%)
Язык : English
Default : Да
Forced : Нет
Основные цвета : BT.709
Характеристики трансфера : BT.709
Коэффициенты матрицы : BT.709
Аудио #1
Идентификатор : 2
Формат : AC-3
Формат/Информация : Audio Coding 3
Расширение режима : CM (complete main)
Параметр Endianness формата : Big
Идентификатор кодека : A_AC3
Продолжительность : 1 ч. 30 м.
Вид битрейта : Постоянный
Битрейт : 384 Кбит/сек
Каналы : 6 каналов
Расположение каналов : Front: L C R, Side: L R, LFE
Частота : 48,0 КГц
Битовая глубина : 16 бит
Метод сжатия : С потерями
Размер потока : 249 Мбайт (8%)
Язык : English
Default : Нет
Forced : Нет
Аудио #2
Идентификатор : 3
Формат : AC-3
Формат/Информация : Audio Coding 3
Расширение режима : CM (complete main)
Параметр Endianness формата : Big
Идентификатор кодека : A_AC3
Продолжительность : 1 ч. 30 м.
Вид битрейта : Постоянный
Битрейт : 224 Кбит/сек
Каналы : 2 канала
Расположение каналов : Front: L R
Частота : 48,0 КГц
Битовая глубина : 16 бит
Метод сжатия : С потерями
Размер потока : 145 Мбайт (5%)
Заголовок : многолоска
Язык : Russian
Default : Да
Forced : Нет
Аудио #3
Идентификатор : 4
Формат : AC-3
Формат/Информация : Audio Coding 3
Расширение режима : CM (complete main)
Параметр Endianness формата : Big
Идентификатор кодека : A_AC3
Продолжительность : 1 ч. 30 м.
Вид битрейта : Постоянный
Битрейт : 224 Кбит/сек
Каналы : 2 канала
Расположение каналов : Front: L R
Частота : 48,0 КГц
Битовая глубина : 16 бит
Метод сжатия : С потерями
Размер потока : 145 Мбайт (5%)
Заголовок : Гаврилов
Язык : Russian
Default : Нет
Forced : Нет
Меню
00:00:00.000 : en:Credits While Jogging
00:03:13.000 : en:No Slack For Max
00:06:42.000 : en:Swapping Jokes
00:10:51.000 : en:Kate Gets Unattractive
00:14:19.000 : en:Dead Before Dinner
00:15:20.000 : en:Out On The Street
00:17:27.000 : en:In A Flash
00:19:48.000 : en:Kasak Cuts Staff
00:22:08.000 : en:On Their Electronic Trail
00:25:57.000 : en:Target Shooting
00:32:08.000 : en:Arranging A Rendezvous
00:34:52.000 : en:Official ID - For A Trap
00:39:57.000 : en:"I Know You're Out There"
00:46:59.000 : en:Smelly Decoy
00:49:17.000 : en:Joystick Fiddling
00:54:33.000 : en:A Lead To Jodi
00:56:04.000 : en:Family Business
00:58:33.000 : en:Highway Havoc
01:03:10.000 : en:Kate Flees, Max Follows
01:05:52.000 : en:On A Fast Track
01:08:05.000 : en:Cornered And Derailed
01:12:54.000 : en:Numbers Game
01:16:39.000 : en:Bloody Beachhead
01:20:15.000 : en:Assault On The Tortuga
01:21:35.000 : en:Great Balls Of Fire
01:24:03.000 : en:Getting Out Of A Lawsuit
01:25:19.000 : en:End Credits

Скриншоты

Скачать

Скачать торрент!

Как скачивать? · Что такое торрент? · Рейтинг и ограничения

Сайт не распространяет и не хранит электронные версии произведений, а лишь предоставляет доступ к создаваемому пользователями каталогу ссылок на торрент-файлы, которые содержат только списки хеш-сумм

[Профиль] [ЛС]
Показать сообщения:    
Ответить на тему

Текущее время: Сегодня 00:07

Часовой пояс: GMT + 4



Вы не можете начинать темы
Вы не можете отвечать на сообщения
Вы не можете редактировать свои сообщения
Вы не можете удалять свои сообщения
Вы не можете голосовать в опросах
Вы не можете прикреплять файлы к сообщениям
Вы не можете скачивать файлы