Одинокое место для смерти / A lonely place for dying (Джастин Юджин Эванс / Justin Eugene Evans) [2012, США, шпионский триллер, WEB-DL 720p] VO (А. Кедров)

Ответить на тему
 
Автор Сообщение

user ®

Стаж: 7 лет 7 месяцев

Сообщений: 20008

Пост Пост: #1 от 22-Июл-2013 18:40

[Цитировать]

Одинокое место для смерти / A lonely place for dying
Страна: США
Жанр: шпионский триллер
Год выпуска: 2012
Продолжительность: 01:33:13
Перевод: Одноголосый закадровый А. Кедров
Перевод с английского: А. Кедров (при участии zelesk, mikeOS и Nelly82)
Cубтитры: русские форсированные
Оригинальная аудиодорожка: нет
Режиссер: Джастин Юджин Эванс / Justin Eugene Evans
В ролях: Майкл Сковотти, Росс Маркванд, Майкл Уинкотт, Джеймс Кромуэлл
Описание: 1972 год. Заброшенная мексиканская тюрьма посреди пыльной пустыни. Перебежчик КГБ Николай Дзержинский ожидает звонка из "Вашингтон Пост". Он хранит у себя скандальный компромат на ЦРУ - информацию, с помощью которой он планирует выторговать для себя прибежище в США. Специальный агент Роберт Харпер должен перехватить этот материал и убить Дзержинского, иначе его карьере в ЦРУ - конец. Во время охоты друг на друга двое противников обнаруживают, что это смертельное противостояние было предопределено их прошлым.
Доп. информация: Фильм снят в 2008 году, но до сего времени показывался лишь на кинофестивалях, собрав множество номинаций и наград. Наконец, в 2012 году у фильма появляется прокатчик и он выходит на большой экран. (http://boxofficemojo.com/movies/?id=lonelyplacefordying.htm)

Сэмпл: http://multi-up.com/885765
Тип релиза: WEB-DL 720p
Контейнер: MKV
Видео: MPEG4 Video (H264) 1280x530 23.98fps 0.253bits/pixel
Аудио: Dolby AC3 48000Hz stereo 640kbps
Формат субтитров: softsub (SRT)

MediaInfo

General
Unique ID : 183850893935561894772536748004835397294 (0x8A5064E9D9E7CF1FBD0B1132176D0EAE)
Complete name : D:\VIDEO\A Lonely Place for Dying.Rus.mkv
Format : Matroska
Format version : Version 2
File size : 3.16 GiB
Duration : 1h 33mn
Overall bit rate : 4 852 Kbps
Encoded date : UTC 2013-07-18 15:19:04
Writing application : mkvmerge v4.0.0 ('The Stars were mine') built on Jun 6 2010 16:18:42
Writing library : libebml v1.0.0 + libmatroska v1.0.0
Video
ID : 1
Format : AVC
Format/Info : Advanced Video Codec
Format profile : Main@L3.1
Format settings, CABAC : No
Format settings, ReFrames : 2 frames
Codec ID : V_MPEG4/ISO/AVC
Duration : 1h 33mn
Bit rate : 4 115 Kbps
Width : 1 280 pixels
Height : 530 pixels
Display aspect ratio : 2.40:1
Frame rate mode : Constant
Frame rate : 23.976 fps
Color space : YUV
Chroma subsampling : 4:2:0
Bit depth : 8 bits
Scan type : Progressive
Bits/(Pixel*Frame) : 0.253
Stream size : 2.68 GiB (85%)
Language : English
Default : Yes
Forced : No
Color primaries : BT.709
Transfer characteristics : BT.709
Matrix coefficients : BT.709
Audio
ID : 2
Format : AC-3
Format/Info : Audio Coding 3
Mode extension : CM (complete main)
Format settings, Endianness : Big
Codec ID : A_AC3
Duration : 1h 33mn
Bit rate mode : Constant
Bit rate : 640 Kbps
Channel(s) : 2 channels
Channel positions : Front: L R
Sampling rate : 48.0 KHz
Bit depth : 16 bits
Compression mode : Lossy
Stream size : 427 MiB (13%)
Title : A.Kedrov
Language : Russian
Default : Yes
Forced : Yes
Text
ID : 3
Format : UTF-8
Codec ID : S_TEXT/UTF8
Codec ID/Info : UTF-8 Plain Text
Title : force subs
Language : Russian
Default : Yes
Forced : Yes

Скриншоты

Скачать

Скачать торрент!

Как скачивать? · Что такое торрент? · Рейтинг и ограничения

Сайт не распространяет и не хранит электронные версии произведений, а лишь предоставляет доступ к создаваемому пользователями каталогу ссылок на торрент-файлы, которые содержат только списки хеш-сумм

[Профиль] [ЛС]
Показать сообщения:    
Ответить на тему

Текущее время: Сегодня 20:17

Часовой пояс: GMT + 4



Вы не можете начинать темы
Вы не можете отвечать на сообщения
Вы не можете редактировать свои сообщения
Вы не можете удалять свои сообщения
Вы не можете голосовать в опросах
Вы не можете прикреплять файлы к сообщениям
Вы не можете скачивать файлы