Отель для собак / Hotel for Dogs (Тор Фреденталь / Thor Freudenthal) [2009, США, комедия, BDRemux 1080p] Dub + DVO + Sub Rus, Eng + Original Eng

Ответить на тему
 
Автор Сообщение

user ®

Стаж: 7 лет 7 месяцев

Сообщений: 20008

Пост Пост: #1 от 22-Июл-2013 12:20

[Цитировать]

Отель для собак / Hotel for Dogs-Страна: США
Студия: Cold Spring Pictures
Жанр: комедия
Год выпуска: 2009
Продолжительность: 01:39:59-Перевод: Профессиональный (дублированный)
Перевод 2: Профессиональный (двухголосый закадровый)
Cубтитры: русские , английские (3 шт.)
Оригинальная аудиодорожка: английский-Режиссер: Тор Фреденталь /Thor Freudenthal
В ролях: Эмма Робертс, Джэйк Зиманский, Дон Чидл, Джонни Симмонс, Кайла Прэтт, Трой Джентиле, Лиза Кудроу, Кевин Диллон, Аджай Найду, Эрик Эдельштейн-Описание: Энди и Брюсу нужно спрятать свою собаку Пятницу, и они превращают заброшенный отель в приют, где рады любой дворняжке.-Сэмпл: http://yadi.sk/d/YEPkadNi6rvut-Тип релиза: BDRemux 1080p
Контейнер: MKV
Видео: MPEG-4 AVC Video 30759 kbps 1080p / 23,976 fps / 16:9 / High Profile 4.1
Аудио: Dolby Digital Audio Russian 5.1 / 48 kHz / 448 kbps | Дубляж
Аудио 2: Dolby Digital Audio Russian 5.1 / 48 kHz / 448 kbps | DVO
Аудио 3: English / DTS-HD Master Audio / 5.1 / 48 kHz / ~3469 kbps / 24-bit (DTS Core: 5.1 / 48 kHz / 768 kbps / 24-bit)
Формат субтитров: softsub (SRT)

MI

eneral
Complete name                    : F:\  -= Фильмы =-\Отель для собак (2009. Hotel for Dogs).mkv
Format                           : Matroska
File size                        : 24.5 GiB
Duration                         : 1h 39mn
Overall bit rate                 : 35.1 Mbps
Movie name                       : Release for RuTracker
Encoded date                     : UTC 2013-07-15 18:53:06
Writing application              : mkvmerge v4.9.1 ('Ich will') сборка от Jul 11 2011 23:53:15
Writing library                  : libebml v1.2.1 + libmatroska v1.1.1
Video
ID                               : 1
Format                           : AVC
Format/Info                      : Advanced Video Codec
Format profile                   : High@L4.1
Format settings, CABAC           : Yes
Format settings, ReFrames        : 3 frames
Muxing mode                      : Container profile=Unknown@4.1
Codec ID                         : V_MPEG4/ISO/AVC
Duration                         : 1h 39mn
Bit rate mode                    : Variable
Maximum bit rate                 : 38.0 Mbps
Width                            : 1 920 pixels
Height                           : 1 080 pixels
Display aspect ratio             : 16:9
Frame rate                       : 23.976 fps
Standard                         : NTSC
Color space                      : YUV
Chroma subsampling               : 4:2:0
Bit depth                        : 8 bits
Scan type                        : Progressive
Title                            : Hotel for Dogs 2009 1080p NOR Blu-ray AVC TrueHD 5.1-RVL
Language                         : English
Audio #1
ID                               : 2
Format                           : AC-3
Format/Info                      : Audio Coding 3
Mode extension                   : CM (complete main)
Codec ID                         : A_AC3
Duration                         : 1h 39mn
Bit rate mode                    : Constant
Bit rate                         : 448 Kbps
Channel(s)                       : 6 channels
Channel positions                : Front: L C R, Side: L R, LFE
Sampling rate                    : 48.0 KHz
Bit depth                        : 16 bits
Stream size                      : 320 MiB (1%)
Title                            : Дубляж
Language                         : Russian
Audio #2
ID                               : 3
Format                           : AC-3
Format/Info                      : Audio Coding 3
Mode extension                   : CM (complete main)
Codec ID                         : A_AC3
Duration                         : 1h 39mn
Bit rate mode                    : Constant
Bit rate                         : 448 Kbps
Channel(s)                       : 6 channels
Channel positions                : Front: L C R, Side: L R, LFE
Sampling rate                    : 48.0 KHz
Bit depth                        : 16 bits
Stream size                      : 320 MiB (1%)
Title                            : DVO
Language                         : Russian
Audio #3
ID                               : 4
Format                           : DTS
Format/Info                      : Digital Theater Systems
Format profile                   : MA
Codec ID                         : A_DTS
Duration                         : 1h 39mn
Bit rate mode                    : Variable
Channel(s)                       : 6 channels
Channel positions                : Front: L C R, Side: L R, LFE
Sampling rate                    : 48.0 KHz
Bit depth                        : 24 bits
Language                         : English
Text #1
ID                               : 5
Format                           : UTF-8
Codec ID                         : S_TEXT/UTF8
Codec ID/Info                    : UTF-8 Plain Text
Language                         : Russian
Text #2
ID                               : 6
Format                           : UTF-8
Codec ID                         : S_TEXT/UTF8
Codec ID/Info                    : UTF-8 Plain Text
Title                            : full
Language                         : English
Text #3
ID                               : 7
Format                           : UTF-8
Codec ID                         : S_TEXT/UTF8
Codec ID/Info                    : UTF-8 Plain Text
Title                            : SDH
Language                         : English
Text #4
ID                               : 8
Format                           : UTF-8
Codec ID                         : S_TEXT/UTF8
Codec ID/Info                    : UTF-8 Plain Text
Title                            : commentary with  Тhоr Frеudеnthal & Еmma Rоbеrts
Language                         : English
Menu
00:00:00.000                     : en:00:00:00.000
00:04:12.961                     : en:00:04:12.961
00:07:48.385                     : en:00:07:48.385
00:14:47.053                     : en:00:14:47.053
00:20:36.569                     : en:00:20:36.569
00:27:26.144                     : en:00:27:26.144
00:33:09.196                     : en:00:33:09.196
00:39:19.566                     : en:00:39:19.566
00:46:31.247                     : en:00:46:31.247
00:53:08.435                     : en:00:53:08.435
00:59:30.108                     : en:00:59:30.108
01:05:03.233                     : en:01:05:03.233
01:10:21.092                     : en:01:10:21.092
01:18:32.166                     : en:01:18:32.166
01:24:43.161                     : en:01:24:43.161
01:33:53.878                     : en:01:33:53.878

Скриншоты


Скачать

Скачать торрент!

Как скачивать? · Что такое торрент? · Рейтинг и ограничения

Сайт не распространяет и не хранит электронные версии произведений, а лишь предоставляет доступ к создаваемому пользователями каталогу ссылок на торрент-файлы, которые содержат только списки хеш-сумм

[Профиль] [ЛС]
Показать сообщения:    
Ответить на тему

Текущее время: Сегодня 08:39

Часовой пояс: GMT + 4



Вы не можете начинать темы
Вы не можете отвечать на сообщения
Вы не можете редактировать свои сообщения
Вы не можете удалять свои сообщения
Вы не можете голосовать в опросах
Вы не можете прикреплять файлы к сообщениям
Вы не можете скачивать файлы