Пушер / Дилер / Торговец наркотиками / Бандюганы / Pusher (Луис Прието / Luis Prieto) [2012, Великобритания, триллер, криминал, BDRip 720p] [GER Transfer] VO (Doctor Joker) + Original (Eng) + Subs (Rus, Eng, Ger)

Ответить на тему
 
Автор Сообщение

user ®

Стаж: 7 лет 7 месяцев

Сообщений: 20008

Пост Пост: #1 от 22-Июл-2013 12:20

[Цитировать]

Пушер / Дилер / Торговец наркотиками / Бандюганы / Pusher Страна: Великобритания
Студия: Vertigo Films, Embargo Films
Жанр: триллер, криминал
Год выпуска: 2012
Продолжительность: 01:28:15
Перевод: Одноголосый закадровый Doctor_Joker
Cубтитры: английские, русские, немецкие
Оригинальная аудиодорожка: английский
Режиссер: Луис Прието / Luis Prieto
В ролях: Ричард Койл, Бронсон Уэбб, Агнесс Дейн, Мем Ферда, Златко Бурич, Пол Кэй, Билл Томас, Нил Мэскелл, Дэйзи Льюис, Рэй Каллахэн
Описание:
Ремейк фильма 1996 года. Сюжет не изменился, изменилось время действия, изменился антураж, изменились герои (почти все). Теперь на дворе 2012, Лондон, Великобритания. Мелкого, но вполне успешного, барыгу Фрэнка «опрокинул» бывший товарищ по тюрьме, в результате чего главгероя забрали в полицию, откуда он всё-таки ушёл «чистеньким». Казалось бы, что такого? Ничего, кроме того, что теперь он должен 55 тысяч фунтов местному крупному поставщику Мило и на всё про всё у Фрэнка совсем мало времени. Деньги брать негде, так что Фрэнк оказывается в патовой ситуации, а тут и цепной пёс Мило, Хакан, не дремлет…
- || || -Тип релиза: BDRip 720p (рип от HDСhina)
Контейнер: MKV
Видео: AVC (x264), 1280x528 (2,40:1) at 24,000 fps, 3624 Кbps, 0.223 bpp
Аудио 1: AC3; 640 Kbps; CBR; 6 ch; 48 khz | VO - Doctor_Joker |
Аудио 2: AC3; 640 Kbps; CBR; 6 ch; 48 khz | Английский |
Формат субтитров: softsub (SRT)

Скриншоты || x264 Info || MediaInfo || Notes

MediaInfo

Общее
Уникальный идентификатор                 : 209860289366285053010724725225163033151 (0x9DE19F1D6E4F4F68BD339D7673A38A3F)
Полное имя                               : Дилер.2012.L1.720p.BluRay.x264-HDChina.mkv
Формат                                   : Matroska
Версия формата                           : Version 4 / Version 2
Размер файла                             : 3,10 Гбайт
Продолжительность                        : 1 ч. 28 м.
Общий поток                              : 5003 Кбит/сек
Название фильма                          : profile.php?mode=viewprofile&u=22488948
Дата кодирования                         : UTC 2013-07-09 22:01:49
Программа кодирования                    : mkvmerge v6.3.0 ('You can't stop me!') built on Jun 27 2013 22:06:07
Библиотека кодирования                   : libebml v1.3.0 + libmatroska v1.4.0
Видео
Идентификатор                            : 1
Формат                                   : AVC
Формат/Информация                        : Advanced Video Codec
Профиль формата                          : High@L4.1
Параметр CABAC формата                   : Да
Параметр ReFrames формата                : 12 кадров
Идентификатор кодека                     : V_MPEG4/ISO/AVC
Продолжительность                        : 1 ч. 28 м.
Битрейт                                  : 3624 Кбит/сек
Ширина                                   : 1280 пикселей
Высота                                   : 528 пикселей
Соотношение сторон                       : 2,40:1
Режим частоты кадров                     : Постоянный
Частота кадров                           : 24,000 кадра/сек
Цветовое пространство                    : YUV
Субдискретизация насыщенности            : 4:2:0
Битовая глубина                          : 8 бит
Тип развёртки                            : Прогрессивная
Бит/(Пиксели*Кадры)                      : 0.223
Размер потока                            : 2,25 Гбайт (72%)
Библиотека кодирования                   : x264 core 128 r2216kMod 198a7ea
Настройки программы                      : cabac=1 / ref=12 / deblock=1:-1:-1 / analyse=0x3:0x133 / me=umh / subme=10 / psy=1 / fade_compensate=0.00 / psy_rd=1.00:0.10 / mixed_ref=1 / me_range=32 / chroma_me=1 / trellis=2 / 8x8dct=1 / cqm=0 / deadzone=21,11 / fast_pskip=0 / chroma_qp_offset=-3 / threads=24 / lookahead_threads=4 / sliced_threads=0 / nr=0 / decimate=0 / interlaced=0 / bluray_compat=0 / constrained_intra=0 / bframes=8 / b_pyramid=2 / b_adapt=2 / b_bias=0 / direct=3 / weightb=1 / open_gop=0 / weightp=2 / keyint=360 / keyint_min=2 / scenecut=40 / intra_refresh=0 / rc_lookahead=250 / rc=crf / mbtree=1 / crf=17.5000 / qcomp=0.70 / qpmin=0 / qpmax=69 / qpstep=4 / ip_ratio=1.10 / aq=3:1.00
Язык                                     : English
Default                                  : Да
Forced                                   : Нет
Аудио #1
Идентификатор                            : 2
Формат                                   : AC-3
Формат/Информация                        : Audio Coding 3
Расширение режима                        : CM (complete main)
Параметр Endianness формата              : Big
Идентификатор кодека                     : A_AC3
Продолжительность                        : 1 ч. 28 м.
Вид битрейта                             : Постоянный
Битрейт                                  : 640 Кбит/сек
Каналы                                   : 6 каналов
Расположение каналов                     : Front: L C R, Side: L R, LFE
Частота                                  : 48,0 КГц
Битовая глубина                          : 16 бит
Метод сжатия                             : С потерями
Размер потока                            : 407 Мбайт (13%)
Заголовок                                : VO [Doctor_Joker]
Язык                                     : Russian
Default                                  : Да
Forced                                   : Нет
Аудио #2
Идентификатор                            : 3
Формат                                   : AC-3
Формат/Информация                        : Audio Coding 3
Расширение режима                        : CM (complete main)
Параметр Endianness формата              : Big
Идентификатор кодека                     : A_AC3
Продолжительность                        : 1 ч. 28 м.
Вид битрейта                             : Постоянный
Битрейт                                  : 640 Кбит/сек
Каналы                                   : 6 каналов
Расположение каналов                     : Front: L C R, Side: L R, LFE
Частота                                  : 48,0 КГц
Битовая глубина                          : 16 бит
Метод сжатия                             : С потерями
Размер потока                            : 407 Мбайт (13%)
Язык                                     : English
Default                                  : Нет
Forced                                   : Нет
Текст #1
Идентификатор                            : 4
Формат                                   : UTF-8
Идентификатор кодека                     : S_TEXT/UTF8
Идентификатор кодека/Информация          : UTF-8 Plain Text
Язык                                     : English
Default                                  : Нет
Forced                                   : Нет
Текст #2
Идентификатор                            : 5
Формат                                   : UTF-8
Идентификатор кодека                     : S_TEXT/UTF8
Идентификатор кодека/Информация          : UTF-8 Plain Text
Язык                                     : German
Default                                  : Нет
Forced                                   : Нет
Текст #3
Идентификатор                            : 6
Формат                                   : UTF-8
Идентификатор кодека                     : S_TEXT/UTF8
Идентификатор кодека/Информация          : UTF-8 Plain Text
Заголовок                                : [Doctor_Joker]
Язык                                     : Russian
Default                                  : Нет
Forced                                   : Нет
Меню
00:00:00.000                             : de:00:00:00.000
00:06:25.917                             : de:00:06:25.917
00:14:15.792                             : de:00:14:15.792
00:20:56.292                             : de:00:20:56.292
00:27:09.167                             : de:00:27:09.167
00:35:33.917                             : de:00:35:33.917
00:44:23.833                             : de:00:44:23.833
00:53:10.708                             : de:00:53:10.708
01:00:26.958                             : de:01:00:26.958
01:09:09.333                             : de:01:09:09.333
01:16:20.833                             : de:01:16:20.833
01:25:28.375                             : de:01:25:28.375

x264 Info

x264 [info]: frame I:1147 Avg QP:15.87 size: 87788
x264 [info]: frame P:32077 Avg QP:17.25 size: 35833
x264 [info]: frame B:94688 Avg QP:18.76 size: 12978
  • Перевод / озвучка от Doctor_Joker, доступна благодаря спонсору: будулайроманов
    Работа со звуком: Perevodman
Скачать

Скачать торрент!

Как скачивать? · Что такое торрент? · Рейтинг и ограничения

Сайт не распространяет и не хранит электронные версии произведений, а лишь предоставляет доступ к создаваемому пользователями каталогу ссылок на торрент-файлы, которые содержат только списки хеш-сумм

[Профиль] [ЛС]
Показать сообщения:    
Ответить на тему

Текущее время: Сегодня 23:46

Часовой пояс: GMT + 4



Вы не можете начинать темы
Вы не можете отвечать на сообщения
Вы не можете редактировать свои сообщения
Вы не можете удалять свои сообщения
Вы не можете голосовать в опросах
Вы не можете прикреплять файлы к сообщениям
Вы не можете скачивать файлы