Поцелуй проклятой / Kiss of the Damned (Ксан Кассаветис / Xan Cassavetes) [2012, США, драма, ужасы, триллер, BDRip 720p] MVO (OK!Prod) + VO (den904) + VO (cmert) + Original (Eng) + Subs (Rus, Eng)

Ответить на тему
 
Автор Сообщение

user ®

Стаж: 7 лет 7 месяцев

Сообщений: 20008

Пост Пост: #1 от 22-Июл-2013 12:20

[Цитировать]

Поцелуй проклятой / Kiss of the Damned Страна: США
Студия: Bersin Pictures, Deerjen Films, ...
Жанр: драма, ужасы, триллер
Год выпуска: 2012
Продолжительность: 01:35:29
Перевод:
  • Любительский (многоголосый закадровый) OK!Prod
  • Одноголосый закадровый den904
  • Одноголосый закадровый cmert
Cубтитры: английские, английские (SDH), русские (А. Кедров)
Оригинальная аудиодорожка: английский
Режиссер: Ксан Кассаветис / Xan Cassavetes
В ролях: Жозефин Де Ла Буме, Роксана Мескида, Майло Вентимилья, Анна Муглалис, Майкл Рапапорт, Райли Кеох, Хуан Луис Асеведо, Джей Брэннан, Джонатан Кауэтт, Тиэрни Коуплэнд
Описание:
Перед нами разворачивается любовная история между красивой вампиршей и смертным мужчиной. Долго сдерживаясь, героиня все же уступает искушению и пьет кровь любимого и не убивает его. Однако вскоре объявляется сестра вампирши, которая пытается положить конец чужеродным отношениям и спасти род вампиров от угрозы раскрытия.
- || || || || -Тип релиза: BDRip 720p (рип от CHD)
Контейнер: MKV
Видео: AVC (x264), 1280x534 (2,40:1) at 23,976 fps, 5023 Кbps, 0.307 bpp
Аудио 1: AC3; 192 Kbps; CBR; 2 ch; 48 khz | MVO - OK!Prod |
Аудио 2: AC3; 640 Kbps; CBR; 6 ch; 48 khz | VO - den904 |
Аудио 3: AC3; 192 Kbps; CBR; 2 ch; 48 khz | VO - cmert |
Аудио 4: AC3; 640 Kbps; CBR; 6 ch; 48 khz | Английский |
Формат субтитров: softsub (SRT)

Скриншоты || x264 Info || MediaInfo || Notes

Notes:

  • Аудио дорожка №1 взята с этой [url=http://***/forum/viewtopic.php?t=4483575]раздачи[/url], thx: Dikay-Kosha
  • Аудио дорожка №3 взята с этой [url=http://***/forum/viewtopic.php?t=4408692]раздачи[/url], thx: Шнык
  • Русские субтитры взяты с этой [url=http://***/forum/viewtopic.php?t=4407741]раздачи[/url], thx: antoniolagrande
  • Про дорожку №3: из неё вычищен фоновый шум от микрофона, убран клиппинг
  • Английские субтитры, главы взяты с Kiss of the Damned 2012 BluRay 1080p AVC DTS-HD MA5.1-CHDBits
  • Так же с блюрея был заново взят оригинальный звук так как тот кто делал рипы криво выдернул ядро

MediaInfo

Общее
Уникальный идентификатор                 : 218023547454287055263014030075211079042 (0xA405CED0118D438FBC9A07D2EC3CDD82)
Полное имя                               : Поцелуй проклятой.2012.MVO.720p.BluRay.x264-CHD.mkv
Формат                                   : Matroska
Версия формата                           : Version 4 / Version 2
Размер файла                             : 4,45 Гбайт
Продолжительность                        : 1 ч. 35 м.
Общий поток                              : 6673 Кбит/сек
Название фильма                          : profile.php?mode=viewprofile&u=22488948
Дата кодирования                         : UTC 2013-07-16 07:34:14
Программа кодирования                    : mkvmerge v6.3.0 ('You can't stop me!') built on Jun 27 2013 22:06:07
Библиотека кодирования                   : libebml v1.3.0 + libmatroska v1.4.0
Видео
Идентификатор                            : 1
Формат                                   : AVC
Формат/Информация                        : Advanced Video Codec
Профиль формата                          : High@L4.1
Параметр CABAC формата                   : Да
Параметр ReFrames формата                : 10 кадров
Идентификатор кодека                     : V_MPEG4/ISO/AVC
Продолжительность                        : 1 ч. 35 м.
Битрейт                                  : 5023 Кбит/сек
Ширина                                   : 1280 пикселей
Высота                                   : 534 пикселя
Соотношение сторон                       : 2,40:1
Режим частоты кадров                     : Постоянный
Частота кадров                           : 23,976 кадра/сек
Цветовое пространство                    : YUV
Субдискретизация насыщенности            : 4:2:0
Битовая глубина                          : 8 бит
Тип развёртки                            : Прогрессивная
Бит/(Пиксели*Кадры)                      : 0.307
Размер потока                            : 3,25 Гбайт (73%)
Библиотека кодирования                   : x264 core 125 r2208 d9d2288
Настройки программы                      : cabac=1 / ref=10 / deblock=1:-3:-3 / analyse=0x3:0x113 / me=umh / subme=10 / psy=1 / psy_rd=1.00:0.05 / mixed_ref=1 / me_range=32 / chroma_me=1 / trellis=2 / 8x8dct=1 / cqm=0 / deadzone=21,11 / fast_pskip=0 / chroma_qp_offset=-2 / threads=8 / lookahead_threads=1 / sliced_threads=0 / nr=0 / decimate=1 / interlaced=0 / bluray_compat=0 / constrained_intra=0 / bframes=5 / b_pyramid=2 / b_adapt=2 / b_bias=0 / direct=3 / weightb=1 / open_gop=0 / weightp=2 / keyint=250 / keyint_min=23 / scenecut=40 / intra_refresh=0 / rc=2pass / mbtree=0 / bitrate=5023 / ratetol=1.0 / qcomp=0.70 / qpmin=0 / qpmax=69 / qpstep=4 / cplxblur=20.0 / qblur=0.5 / ip_ratio=1.40 / pb_ratio=1.30 / aq=2:0.90
Язык                                     : English
Default                                  : Да
Forced                                   : Нет
Аудио #1
Идентификатор                            : 2
Формат                                   : AC-3
Формат/Информация                        : Audio Coding 3
Расширение режима                        : CM (complete main)
Параметр Endianness формата              : Big
Идентификатор кодека                     : A_AC3
Продолжительность                        : 1 ч. 35 м.
Вид битрейта                             : Постоянный
Битрейт                                  : 192 Кбит/сек
Каналы                                   : 2 канала
Расположение каналов                     : Front: L R
Частота                                  : 48,0 КГц
Битовая глубина                          : 16 бит
Метод сжатия                             : С потерями
Размер потока                            : 131 Мбайт (3%)
Заголовок                                : MVO [OK!Prod]
Язык                                     : Russian
Default                                  : Да
Forced                                   : Нет
Аудио #2
Идентификатор                            : 3
Формат                                   : AC-3
Формат/Информация                        : Audio Coding 3
Расширение режима                        : CM (complete main)
Параметр Endianness формата              : Big
Идентификатор кодека                     : A_AC3
Продолжительность                        : 1 ч. 35 м.
Вид битрейта                             : Постоянный
Битрейт                                  : 640 Кбит/сек
Каналы                                   : 6 каналов
Расположение каналов                     : Front: L C R, Side: L R, LFE
Частота                                  : 48,0 КГц
Битовая глубина                          : 16 бит
Метод сжатия                             : С потерями
Размер потока                            : 437 Мбайт (10%)
Заголовок                                : VO [den904]
Язык                                     : Russian
Default                                  : Нет
Forced                                   : Нет
Аудио #3
Идентификатор                            : 4
Формат                                   : AC-3
Формат/Информация                        : Audio Coding 3
Расширение режима                        : CM (complete main)
Параметр Endianness формата              : Big
Идентификатор кодека                     : A_AC3
Продолжительность                        : 1 ч. 35 м.
Вид битрейта                             : Постоянный
Битрейт                                  : 192 Кбит/сек
Каналы                                   : 2 канала
Расположение каналов                     : Front: L R
Частота                                  : 48,0 КГц
Битовая глубина                          : 16 бит
Метод сжатия                             : С потерями
Размер потока                            : 131 Мбайт (3%)
Заголовок                                : VO [cmert]
Язык                                     : Russian
Default                                  : Нет
Forced                                   : Нет
Аудио #4
Идентификатор                            : 5
Формат                                   : AC-3
Формат/Информация                        : Audio Coding 3
Расширение режима                        : CM (complete main)
Параметр Endianness формата              : Big
Идентификатор кодека                     : A_AC3
Продолжительность                        : 1 ч. 35 м.
Вид битрейта                             : Постоянный
Битрейт                                  : 640 Кбит/сек
Каналы                                   : 6 каналов
Расположение каналов                     : Front: L C R, Side: L R, LFE
Частота                                  : 48,0 КГц
Битовая глубина                          : 16 бит
Метод сжатия                             : С потерями
Размер потока                            : 437 Мбайт (10%)
Язык                                     : English
Default                                  : Нет
Forced                                   : Нет
Текст #1
Идентификатор                            : 6
Формат                                   : UTF-8
Идентификатор кодека                     : S_TEXT/UTF8
Идентификатор кодека/Информация          : UTF-8 Plain Text
Язык                                     : English
Default                                  : Нет
Forced                                   : Нет
Текст #2
Идентификатор                            : 7
Формат                                   : UTF-8
Идентификатор кодека                     : S_TEXT/UTF8
Идентификатор кодека/Информация          : UTF-8 Plain Text
Заголовок                                : SDH
Язык                                     : English
Default                                  : Нет
Forced                                   : Нет
Текст #3
Идентификатор                            : 8
Формат                                   : UTF-8
Идентификатор кодека                     : S_TEXT/UTF8
Идентификатор кодека/Информация          : UTF-8 Plain Text
Заголовок                                : [A. KEDROV aka antoniolagrande]
Язык                                     : Russian
Default                                  : Нет
Forced                                   : Нет
Меню
00:00:00.000                             : en:Meeting
00:09:59.932                             : en:Subconcious Drives
00:15:13.621                             : en:You're Safe
00:23:11.390                             : en:I'm Happy
00:34:15.595                             : en:Someplace New
00:42:17.993                             : en:A Party
00:52:34.568                             : en:Did You Hear That?
00:56:21.586                             : en:Quite the Affair
01:08:48.582                             : en:Mimi
01:13:27.361                             : en:She'll Be Delighted
01:20:23.860                             : en:Arrange It
01:29:30.490                             : en:End Credits
01:35:27.722                             : en:

Source vs Encode

CHD (BluRay)........vs........CtrlHD (WEB-DL)


Озвучено «Ok!Prod»:

» Роли озвучивали:- Кристина Истомина
- Дмитрий Роецкий
- Алёна Котова
- Евгения Золото
- Ольга Антипова
- Адам Шухарт
- Никита Диденко
..........................................................................................................................................
- -
Скачать

Скачать торрент!

Как скачивать? · Что такое торрент? · Рейтинг и ограничения

Сайт не распространяет и не хранит электронные версии произведений, а лишь предоставляет доступ к создаваемому пользователями каталогу ссылок на торрент-файлы, которые содержат только списки хеш-сумм

[Профиль] [ЛС]
Показать сообщения:    
Ответить на тему

Текущее время: Сегодня 06:09

Часовой пояс: GMT + 4



Вы не можете начинать темы
Вы не можете отвечать на сообщения
Вы не можете редактировать свои сообщения
Вы не можете удалять свои сообщения
Вы не можете голосовать в опросах
Вы не можете прикреплять файлы к сообщениям
Вы не можете скачивать файлы