Зловещие мертвецы: Чёрная книга / Evil Dead (Федерико Альварес / Federico Alvarez) [2013, США, ужасы, BDRip 720p] Dub (Blu-ray CEE) + AVO (Антон Карповский) + VO (Алексей Doctor Joker Матвеев) + Original Eng + Sub (Rus, Eng)

Ответить на тему
 
Автор Сообщение

user ®

Стаж: 7 лет 7 месяцев

Сообщений: 20008

Пост Пост: #1 от 22-Июл-2013 12:20

[Цитировать]

Зловещие мертвецы: Чёрная книга / Evil Dead «Уже не остановить» Год выпуска: 2013
Страна: США
Жанр: ужасы
Продолжительность: 01:31:18.473
Перевод 1: Профессиональный (дублированный) Blu-ray CEE
Перевод 2: Авторский (одноголосый закадровый) Антон Карповский Ненормативная лексика
Перевод 3: Одноголосый закадровый Алексей "Doctor_Joker" Матвеев по переводу MartinaG Ненормативная лексика
Оригинальная аудиодорожка: Английская
Субтитры: Русские (Full, MartinaG), английские (Full, SDH, SDH Colored, Commentary)
Студия: TriStar Pictures, FilmDistrict, Ghost House Pictures
Режиссёр: Федерико Альварес / Federico Alvarez
В ролях: Джейн Леви, Шайло Фернандес, Лу Тэйлор Пуччи, Джессика Лукас, Элизабет Блэкмор, Феникс Коннолли, Джим МакЛарти, Сиан Дэвис, Стефен Баттерворф, Карл Виллетц и др.
Описание: Молодая женщина Миа, пытающаяся избавиться от наркозависимости, отправляется вместе с братом и группой друзей в удалённую хижину, где они открывают Книгу мёртвых, что приводит к опасности и ужасу.
  • Кинопоиск
  • IMDB
  • Blu-ray.com
  • Сэмпл
    Качество: BDRip 720p (HiDt)
    Контейнер: MKV
    Видео: MPEG-4 AVC Video / 7465 kbps / 1280x536p / 23,976 fps / 2.40:1 / 0.454 bit/pix / High@L4.1
    Аудио 1: Русский / Dolby Digital Audio / 5.1 / 48 kHz / 640 kbps / 16-bit / Дубляж Blu-ray CEE
    Аудио 2: Русский / DTS Audio / 5.1 / 48 kHz / 1536 kbps / 24-bit / AVO Антон Карповский
    Аудио 3: Русский / DTS Audio / 5.1 / 48 kHz / 1536 kbps / 24-bit / VO Алексей "Doctor_Joker" Матвеев
    Аудио 4: English / DTS Audio / 5.1 / 48 kHz / 1536 kbps / 24-bit / Оригинал
    Аудио 5: English / Dolby Digital Audio / 5.1 / 48 kHz / 640 kbps / 16-bit / Descriptive
    Аудио 6: English / Dolby Digital Audio / 2.0 / 48 kHz / 192 kbps / 16-bit / Commentary w/ Director Fede Alvarez, Writer Rodo Sayagues, Actors Jane Levy, Lou Taylor Pucci and Jessica Lucas
    Навигация по главам: да

Скриншот с названием фильма

MediaInfo

C:\***\Зловещие мертвецы - Чёрная книга (Evil Dead) 2013, США, ужасы, BDRip 720p GORESEWAGE.mkv
General
Unique ID : 207435038075078801389892855048721557663 (0x9C0E88FE91404D3A9A0908FD228A689F)
Complete name : C:\***\Зловещие мертвецы - Чёрная книга (Evil Dead) 2013, США, ужасы, BDRip 720p GORESEWAGE.mkv
Format : Matroska
Format version : Version 4 / Version 2
File size : 8.76 GiB
Duration : 1h 31mn
Overall bit rate : 13.7 Mbps
Movie name : GORESEWAGE
Encoded date : UTC 2013-07-16 22:40:13
Writing application : mkvmerge v6.1.0 ('Old Devil') built on Mar 31 2013 15:21:18
Writing library : libebml v1.3.0 + libmatroska v1.4.0
Video #1
ID : 1
Format : AVC
Format/Info : Advanced Video Codec
Format profile : High@L4.1
Format settings, CABAC : Yes
Format settings, ReFrames : 12 frames
Codec ID : V_MPEG4/ISO/AVC
Duration : 1h 31mn
Bit rate : 7 465 Kbps
Width : 1 280 pixels
Height : 536 pixels
Display aspect ratio : 2.40:1
Frame rate mode : Constant
Frame rate : 23.976 fps
Color space : YUV
Chroma subsampling : 4:2:0
Bit depth : 8 bits
Scan type : Progressive
Bits/(Pixel*Frame) : 0.454
Stream size : 4.76 GiB (54%)
Title : GORESEWAGE
Writing library : x264 core 130 r2273 b3065e6
Encoding settings : cabac=1 / ref=12 / deblock=1:-3:-3 / analyse=0x3:0x113 / me=tesa / subme=11 / psy=1 / psy_rd=0.90:0.00 / mixed_ref=1 / me_range=32 / chroma_me=1 / trellis=2 / 8x8dct=1 / cqm=0 / deadzone=21,11 / fast_pskip=0 / chroma_qp_offset=-2 / threads=12 / lookahead_threads=2 / sliced_threads=0 / nr=0 / decimate=1 / interlaced=0 / bluray_compat=0 / constrained_intra=0 / bframes=8 / b_pyramid=2 / b_adapt=2 / b_bias=0 / direct=3 / weightb=1 / open_gop=0 / weightp=2 / keyint=250 / keyint_min=25 / scenecut=40 / intra_refresh=0 / rc=crf / mbtree=0 / crf=14.5 / qcomp=0.60 / qpmin=0 / qpmax=69 / qpstep=4 / ip_ratio=1.40 / pb_ratio=1.30 / aq=1:0.70
Language : English
Default : Yes
Forced : No
Matrix coefficients : BT.709
Audio #2
ID : 2
Format : AC-3
Format/Info : Audio Coding 3
Mode extension : CM (complete main)
Format settings, Endianness : Big
Codec ID : A_AC3
Duration : 1h 31mn
Bit rate mode : Constant
Bit rate : 640 Kbps
Channel(s) : 6 channels
Channel positions : Front: L C R, Side: L R, LFE
Sampling rate : 48.0 KHz
Bit depth : 16 bits
Compression mode : Lossy
Stream size : 418 MiB (5%)
Title : Профессиональный (дублированный) Blu-ray CEE
Language : Russian
Default : Yes
Forced : No
Audio #3
ID : 3
Format : DTS
Format/Info : Digital Theater Systems
Codec ID : A_DTS
Duration : 1h 31mn
Bit rate mode : Constant
Bit rate : 1 510 Kbps
Channel(s) : 6 channels
Channel positions : Front: L C R, Side: L R, LFE
Sampling rate : 48.0 KHz
Bit depth : 24 bits
Compression mode : Lossy
Stream size : 986 MiB (11%)
Title : Авторский (одноголосый закадровый) Антон Карповский
Language : Russian
Default : No
Forced : No
Audio #4
ID : 4
Format : DTS
Format/Info : Digital Theater Systems
Codec ID : A_DTS
Duration : 1h 31mn
Bit rate mode : Constant
Bit rate : 1 510 Kbps
Channel(s) : 6 channels
Channel positions : Front: L C R, Side: L R, LFE
Sampling rate : 48.0 KHz
Bit depth : 24 bits
Compression mode : Lossy
Stream size : 986 MiB (11%)
Title : Одноголосый закадровый Алексей "Doctor_Joker" Матвеев
Language : Russian
Default : No
Forced : No
Audio #5
ID : 5
Format : DTS
Format/Info : Digital Theater Systems
Codec ID : A_DTS
Duration : 1h 31mn
Bit rate mode : Constant
Bit rate : 1 510 Kbps
Channel(s) : 6 channels
Channel positions : Front: L C R, Side: L R, LFE
Sampling rate : 48.0 KHz
Bit depth : 24 bits
Compression mode : Lossy
Stream size : 986 MiB (11%)
Title : Оригинал
Language : English
Default : No
Forced : No
Audio #6
ID : 6
Format : AC-3
Format/Info : Audio Coding 3
Mode extension : CM (complete main)
Format settings, Endianness : Big
Codec ID : A_AC3
Duration : 1h 31mn
Bit rate mode : Constant
Bit rate : 640 Kbps
Channel(s) : 6 channels
Channel positions : Front: L C R, Side: L R, LFE
Sampling rate : 48.0 KHz
Bit depth : 16 bits
Compression mode : Lossy
Stream size : 418 MiB (5%)
Title : Descriptive
Language : English
Default : No
Forced : No
Audio #7
ID : 7
Format : AC-3
Format/Info : Audio Coding 3
Format profile : Dolby Digital
Mode extension : CM (complete main)
Format settings, Endianness : Big
Codec ID : A_AC3
Duration : 1h 31mn
Bit rate mode : Constant
Bit rate : 192 Kbps
Channel(s) : 2 channels
Channel positions : Front: L R
Sampling rate : 48.0 KHz
Bit depth : 16 bits
Compression mode : Lossy
Stream size : 125 MiB (1%)
Title : Commentary w/ Director Fede Alvarez, Writer Rodo Sayagues, Actors Jane Levy, Lou Taylor Pucci and Jessica Lucas
Language : English
Default : No
Forced : No
Text #8
ID : 8
Format : UTF-8
Codec ID : S_TEXT/UTF8
Codec ID/Info : UTF-8 Plain Text
Title : Full Blu-ray CEE
Language : Russian
Default : No
Forced : No
Text #9
ID : 9
Format : UTF-8
Codec ID : S_TEXT/UTF8
Codec ID/Info : UTF-8 Plain Text
Title : MartinaG
Language : Russian
Default : No
Forced : No
Text #10
ID : 10
Format : UTF-8
Codec ID : S_TEXT/UTF8
Codec ID/Info : UTF-8 Plain Text
Title : Full Blu-ray CEE
Language : English
Default : No
Forced : No
Text #11
ID : 11
Format : UTF-8
Codec ID : S_TEXT/UTF8
Codec ID/Info : UTF-8 Plain Text
Title : SDH
Language : English
Default : No
Forced : No
Text #12
ID : 12
Format : UTF-8
Codec ID : S_TEXT/UTF8
Codec ID/Info : UTF-8 Plain Text
Title : SDH Colored
Language : English
Default : No
Forced : No
Text #13
ID : 13
Format : UTF-8
Codec ID : S_TEXT/UTF8
Codec ID/Info : UTF-8 Plain Text
Title : Commentary
Language : English
Default : No
Forced : No
Menu
00:00:00.000 : en:00:00:00.000
00:05:10.310 : en:00:05:10.310
00:09:46.085 : en:00:09:46.085
00:14:24.030 : en:00:14:24.030
00:18:34.030 : en:00:18:34.030
00:23:14.310 : en:00:23:14.310
00:30:38.045 : en:00:30:38.045
00:35:34.799 : en:00:35:34.799
00:40:36.476 : en:00:40:36.476
00:49:43.480 : en:00:49:43.480
00:55:24.238 : en:00:55:24.238
01:01:35.191 : en:01:01:35.191
01:08:35.778 : en:01:08:35.778
01:14:05.983 : en:01:14:05.983
01:17:24.974 : en:01:17:24.974
01:20:36.248 : en:01:20:36.248

Полноразмерный постер

Скачать

Скачать торрент!

Как скачивать? · Что такое торрент? · Рейтинг и ограничения

Сайт не распространяет и не хранит электронные версии произведений, а лишь предоставляет доступ к создаваемому пользователями каталогу ссылок на торрент-файлы, которые содержат только списки хеш-сумм

[Профиль] [ЛС]
Показать сообщения:    
Ответить на тему

Текущее время: Сегодня 20:37

Часовой пояс: GMT + 4



Вы не можете начинать темы
Вы не можете отвечать на сообщения
Вы не можете редактировать свои сообщения
Вы не можете удалять свои сообщения
Вы не можете голосовать в опросах
Вы не можете прикреплять файлы к сообщениям
Вы не можете скачивать файлы