Стелла / Stella (Джон Эрман / John Erman) [1990, США, драма, HDTV 1080i] DVO (НТВ+) + Sub Eng + Original Eng

Ответить на тему
 
Автор Сообщение

user ®

Стаж: 7 лет 7 месяцев

Сообщений: 20008

Пост Пост: #1 от 22-Июл-2013 12:20

[Цитировать]

Стелла / Stella
Страна: США
Студия: Samuel Goldwyn Company, Touchstone Pictures
Жанр: драма
Год выпуска: 1990
Продолжительность: 01:44:27
Перевод: Профессиональный (двухголосый закадровый) НТВ+
Cубтитры: английские
Оригинальная аудиодорожка: английский
Режиссер: Джон Эрман / John Erman
В ролях: Бетт Мидлер /Bette Midler/, Джон Гудман /John Goodman/, Трини Альварадо /Trini Alvarado/, Стивен Коллинз /Stephen Collins/, Марша Мэйсон /Marsha Mason/, Линда Харт /Linda Hart/, Бен Стиллер /Ben Stiller
Описание: Смотря в лицо жизни без всяких сожалений, Стелла (Бетт Мидлер) одна воспитывает свою любящую дочь Дженни (Трини Альварадо). С годами между ними вырабатываются редкие по искренности и теплоте взаимоотношения. Все идет прекрасно до тех пор, пока Стелла с горечью не осознает, что не может дать дочери преимущества того материального статуса, которым обладает живущий отдельно отец Дженни.

Доп. информация: За оригинальную дорогу спасибо ilya_l
Тип релиза: HDTV 1080i
Контейнер: MKV
Видео: AVC 1920x1080 (16:9) 25.0fps Bit rate 5805Kbps
Аудио 1: AC3 48.0KHz 2ch 192 Kbps rus
Аудио 2: AC3 48.0KHz 2ch 192 Kbps eng

MediaInfo

General
Complete name : E:\torrent\Stella_HDTV 1080i.mkv
Format : Matroska
File size : 4.61 GiB
Duration : 1h 44mn
Overall bit rate : 6 315 Kbps
Encoded date : UTC 2013-07-16 06:52:29
Writing application : mkvmerge v5.7.0 ('The Whirlwind') built on Jul 8 2012 20:08:51
Writing library : libebml v1.2.3 + libmatroska v1.3.0
Video
ID : 1
Format : AVC
Format/Info : Advanced Video Codec
Format profile : High@L4.0
Format settings, CABAC : Yes
Format settings, ReFrames : 3 frames
Format settings, GOP : M=1, N=64
Muxing mode : Container profile=Unknown@4.0
Codec ID : V_MPEG4/ISO/AVC
Duration : 1h 44mn
Bit rate : 5 805 Kbps
Width : 1 920 pixels
Height : 1 080 pixels
Display aspect ratio : 16:9
Frame rate : 50.000 fps
Original frame rate : 25.000 fps
Standard : Component
Color space : YUV
Chroma subsampling : 4:2:0
Bit depth : 8 bits
Scan type : Interlaced
Scan order : Top Field First
Bits/(Pixel*Frame) : 0.056
Stream size : 4.24 GiB (92%)
Title : Stella_HDTV 10870i
Color primaries : BT.709-5, BT.1361, IEC 61966-2-4, SMPTE RP177
Transfer characteristics : BT.709-5, BT.1361
Matrix coefficients : BT.709-5, BT.1361, IEC 61966-2-4 709, SMPTE RP177
Audio #1
ID : 2
Format : AC-3
Format/Info : Audio Coding 3
Mode extension : CM (complete main)
Codec ID : A_AC3
Duration : 1h 44mn
Bit rate mode : Constant
Bit rate : 192 Kbps
Channel(s) : 2 channels
Channel positions : Front: L R
Sampling rate : 48.0 KHz
Bit depth : 16 bits
Stream size : 143 MiB (3%)
Title : Stella_AC3_DVO_rus
Language : Russian
Audio #2
ID : 3
Format : AC-3
Format/Info : Audio Coding 3
Mode extension : CM (complete main)
Codec ID : A_AC3
Duration : 1h 44mn
Bit rate mode : Constant
Bit rate : 192 Kbps
Channel(s) : 2 channels
Channel positions : Front: L R
Sampling rate : 48.0 KHz
Bit depth : 16 bits
Stream size : 143 MiB (3%)
Title : Stella_original_eng
Text
ID : 4
Format : UTF-8
Codec ID : S_TEXT/UTF8
Codec ID/Info : UTF-8 Plain Text
Title : Stella_subtitle_eng

Скриншот с названием фильма

Скриншоты

Скачать

Скачать торрент!

Как скачивать? · Что такое торрент? · Рейтинг и ограничения

Сайт не распространяет и не хранит электронные версии произведений, а лишь предоставляет доступ к создаваемому пользователями каталогу ссылок на торрент-файлы, которые содержат только списки хеш-сумм

[Профиль] [ЛС]
Показать сообщения:    
Ответить на тему

Текущее время: Сегодня 04:26

Часовой пояс: GMT + 4



Вы не можете начинать темы
Вы не можете отвечать на сообщения
Вы не можете редактировать свои сообщения
Вы не можете удалять свои сообщения
Вы не можете голосовать в опросах
Вы не можете прикреплять файлы к сообщениям
Вы не можете скачивать файлы