Внезапная смерть / Sudden Death (Питер Хайамс / Peter Hyams) [1995, США, Боевик, триллер, драма, Blu-ray disc (custom)] 3х MVO + 3x AVO + 2x DVO + Sub Rus, Eng + Original Eng

Ответить на тему
 
Автор Сообщение

user ®

Стаж: 7 лет 7 месяцев

Сообщений: 20008

Пост Пост: #1 от 22-Июл-2013 12:20

[Цитировать]

Внезапная Смерть / Sudden Death«This Christmas, action goes into overtime.»
-
Страна: США
Студия: Universal Pictures
Жанр: Боевик, триллер, драма
Год выпуска: 1995
Продолжительность: 01:49:58
Перевод: Авторский (одноголосый закадровый) Живов
Перевод 2: Профессиональный (многоголосый закадровый) Премьер-Видео
Перевод 3: Профессиональный (двухголосый закадровый)
Перевод 4: Профессиональный (двухголосый закадровый) НТВ
Перевод 5: Авторский (одноголосый закадровый) Гаврилов
Перевод 6: Авторский (одноголосый закадровый) Визгунов
Перевод 7: Профессиональный (многоголосый закадровый)
Перевод 8: Профессиональный (многоголосый закадровый) СТС
Cубтитры: English, Chinese, Czech, Danish, Dutch, Finnish, French, German, Greek, Hungarian, Italian, Japanese, Korean, Norwegian, Polish, Portuguese (2), Russian (full), Spanish (2), Swedish, Thai, Turkish
Оригинальная аудиодорожка: английский
-
Режиссер: Питер Хайамс / Peter Hyams
Сценарий: Джин Квинтано, Карен Элиз Болдуин
Проюседр: Ховард Болдуин, Карен Элиз Болдуин, Джейсон Кларк
Оператор: Питер Хайамс
Композитор: Джон Дебни
-
В ролях: Жан-Клод Ван Дамм, Пауэрс Бут, Рэймонд Дж. Бэрри, Уиттни Райт, Росс Мэлинджер, Дориан Хэрвуд, Кейт МаНил, Майкл Гэстон, Одра Линдли, Брайан Дилейт
Описание: Во время проведения решающего хоккейного матча кубка Стенли гигантский стадион оказывается в заложниках у группы террористов, возглавляемых бывшим сотрудником службы безопасности. В случае отказа или задержки выполнения их требований (перевод значительной суммы на различные банковские счета) преступники грозят взорвать здание.
На их беду, среди персонала спорткомплекса оказывается мужественный пожарный, а среди зрителей, подвергающихся смертельной опасности, — его дети.
Мировая Премьера: 26 октября 1995
Бюджет: $35 000 000
Сборы в Мире: $64 350 171
IMDB: http://www.imdb.com/title/tt0114576/?ref_=sr_1
Kinopoisk: http://www.kinopoisk.ru/film/18193/
Использованные Программы: BD Reauthor Pro, Sonic Scenarist BD
Меню: Есть, статичное
Сэмпл: http://rusfolder.ru/37275134
-
Тип релиза: Blu-ray disc (custom)
Контейнер: BDMV
Видео: VC-1 Video / 30504 kbps / 1080p / 23,976 fps / 16:9 / Advanced Profile 3
Аудио: Japanese / DTS Audio / 5.1 / 48 kHz / 768 kbps / 24-bit
Аудио 2: English / DTS-HD Master Audio / 5.1 / 48 kHz / 2688 kbps / 24-bit (DTS Core: 5.1 / 48 kHz / 1509 kbps / 24-bit)
Аудио 3: Russian / Dolby Digital Audio / 5.1 / 48 kHz / 384 kbps (Одноголосый закадровый, Живов)
Аудио 4: Russian / Dolby Digital Audio / 2.0 / 48 kHz / 192 kbps (Многоголосый закадровый, Премьер-видео)
Аудио 5: Russian / Dolby Digital Audio / 5.1 / 48 kHz / 384 kbps (Двухголосый)
Аудио 6: Russian / Dolby Digital Audio / 2.0 / 48 kHz / 192 kbps (Двухголосый, НТВ)
Аудио 7: Russian / Dolby Digital Audio / 2.0 / 48 kHz / 192 kbps (Одноголосый закадровый, Гаврилов)
Аудио 8: Russian / Dolby Digital Audio / 2.0 / 48 kHz / 192 kbps (Одноголосый закадровый, Визгунов)
Аудио 9: Russian / Dolby Digital Audio / 2.0 / 48 kHz / 192 kbps (Многоголосый закадровый)
Аудио 10: Russian / Dolby Digital Audio / 2.0 / 48 kHz / 192 kbps (Многоголосый закадровый, СТС)
-

BDInfo

Disc Title: Sudden.Death.1995.BD
Disc Size: 33 013 033 858 bytes
Protection: AACS
BD-Java: Yes
BDInfo: 0.5.8
Notes:
BDINFO HOME:
Cinema Squid
http://www.cinemasquid.com/blu-ray/tools/bdinfo
INCLUDES FORUMS REPORT FOR:
AVS Forum Blu-ray Audio and Video Specifications Thread
http://www.avsforum.com/avs-vb/showthread.php?t=1155731
********************
PLAYLIST: 00800.MPLS
********************
Total   Video
Title                                                           Codec   Length  Movie Size      Disc Size       Bitrate Bitrate Main Audio Track                          Secondary Audio Track
-----                                                           ------  ------- --------------  --------------  ------- ------- ------------------                        ---------------------
00800.MPLS                                                      VC-1    1:49:58 31 996 102 656  33 013 033 858  38,79   30,50   DTS 5.1 768Kbps (48kHz/24-bit)
DISC INFO:
Disc Title:     Sudden.Death.1995.BD
Disc Size:      33 013 033 858 bytes
Protection:     AACS
BD-Java:        Yes
BDInfo:         0.5.8
PLAYLIST REPORT:
Name:                   00800.MPLS
Length:                 1:49:58.592 (h:m:s.ms)
Size:                   31 996 102 656 bytes
Total Bitrate:          38,79 Mbps
VIDEO:
Codec                   Bitrate             Description
-----                   -------             -----------
VC-1 Video              30504 kbps          1080p / 23,976 fps / 16:9 / Advanced Profile 3
AUDIO:
Codec                           Language        Bitrate         Description
-----                           --------        -------         -----------
DTS Audio                       Japanese        768 kbps        5.1 / 48 kHz / 768 kbps / 24-bit
DTS-HD Master Audio             English         2688 kbps       5.1 / 48 kHz / 2688 kbps / 24-bit (DTS Core: 5.1 / 48 kHz / 1509 kbps / 24-bit)
Dolby Digital Audio             Russian         384 kbps        5.1 / 48 kHz / 384 kbps
Dolby Digital Audio             Russian         192 kbps        2.0 / 48 kHz / 192 kbps
Dolby Digital Audio             Russian         384 kbps        5.1 / 48 kHz / 384 kbps
Dolby Digital Audio             Russian         192 kbps        2.0 / 48 kHz / 192 kbps
Dolby Digital Audio             Russian         192 kbps        2.0 / 48 kHz / 192 kbps
Dolby Digital Audio             Russian         192 kbps        2.0 / 48 kHz / 192 kbps
Dolby Digital Audio             Russian         192 kbps        2.0 / 48 kHz / 192 kbps
Dolby Digital Audio             Russian         192 kbps        2.0 / 48 kHz / 192 kbps
SUBTITLES:
Codec                           Language        Bitrate         Description
-----                           --------        -------         -----------
Presentation Graphics           Japanese        14,933 kbps
Presentation Graphics           English         37,868 kbps
Presentation Graphics           French          22,757 kbps
Presentation Graphics           Italian         30,967 kbps
Presentation Graphics           German          31,044 kbps
Presentation Graphics           Spanish         29,799 kbps
Presentation Graphics           Portuguese      22,398 kbps
Presentation Graphics           Spanish         22,891 kbps
Presentation Graphics           Czech           28,731 kbps
Presentation Graphics           Danish          29,631 kbps
Presentation Graphics           Dutch           18,360 kbps
Presentation Graphics           Finnish         21,226 kbps
Presentation Graphics           Greek           18,528 kbps
Presentation Graphics           Hungarian       31,285 kbps
Presentation Graphics           Korean          17,042 kbps
Presentation Graphics           Norwegian       18,590 kbps
Presentation Graphics           Polish          31,583 kbps
Presentation Graphics           Portuguese      33,643 kbps
Presentation Graphics           Russian         32,244 kbps
Presentation Graphics           Swedish         28,169 kbps
Presentation Graphics           Thai            15,983 kbps
Presentation Graphics           Turkish         33,213 kbps
Presentation Graphics           Chinese         24,952 kbps
Presentation Graphics           Japanese        0,229 kbps
Presentation Graphics           French          0,210 kbps
Presentation Graphics           Italian         0,344 kbps
Presentation Graphics           German          0,296 kbps
Presentation Graphics           Spanish         0,540 kbps
Presentation Graphics           Portuguese      0,064 kbps
Presentation Graphics           Spanish         0,077 kbps
FILES:
Name            Time In         Length          Size            Total Bitrate
----            -------         ------          ----            -------------
00023.M2TS      0:00:00.000     1:49:58.592     31 996 102 656  38 791
CHAPTERS:
Number          Time In         Length          Avg Video Rate  Max 1-Sec Rate  Max 1-Sec Time  Max 5-Sec Rate  Max 5-Sec Time  Max 10Sec Rate  Max 10Sec Time  Avg Frame Size  Max Frame Size  Max Frame Time
------          -------         ------          --------------  --------------  --------------  --------------  --------------  --------------  --------------  --------------  --------------  --------------
1               0:00:00.000     0:03:25.830     21 044 kbps     42 244 kbps     00:01:13.364    34 571 kbps     00:02:42.203    33 656 kbps     00:02:39.242    110 612 bytes   341 901 bytes   00:02:32.026
2               0:03:25.830     0:03:58.279     30 250 kbps     40 346 kbps     00:04:36.651    35 597 kbps     00:06:16.501    34 582 kbps     00:06:16.501    158 039 bytes   456 998 bytes   00:05:51.517
3               0:07:24.110     0:13:07.495     31 488 kbps     46 162 kbps     00:19:21.952    36 957 kbps     00:19:47.895    35 619 kbps     00:08:45.733    164 163 bytes   485 480 bytes   00:10:23.122
4               0:20:31.605     0:16:20.938     31 768 kbps     46 760 kbps     00:23:45.006    37 135 kbps     00:33:59.704    35 063 kbps     00:33:57.452    165 625 bytes   391 118 bytes   00:23:49.177
5               0:36:52.543     0:05:29.329     31 940 kbps     46 882 kbps     00:42:13.697    36 429 kbps     00:40:13.828    34 445 kbps     00:40:14.370    166 519 bytes   406 249 bytes   00:42:14.573
6               0:42:21.872     0:02:02.956     32 515 kbps     42 650 kbps     00:43:12.965    36 637 kbps     00:44:08.687    35 424 kbps     00:44:04.808    169 518 bytes   273 154 bytes   00:42:53.237
7               0:44:24.828     0:08:21.542     31 975 kbps     42 935 kbps     00:50:45.292    35 539 kbps     00:51:23.747    35 095 kbps     00:51:19.618    166 701 bytes   352 926 bytes   00:46:29.328
8               0:52:46.371     0:06:04.530     31 841 kbps     45 378 kbps     00:53:48.183    37 674 kbps     00:53:44.387    35 685 kbps     00:53:39.257    166 004 bytes   422 732 bytes   00:56:38.561
9               0:58:50.902     0:01:55.198     31 135 kbps     44 933 kbps     01:00:20.617    34 798 kbps     01:00:27.540    34 577 kbps     01:00:20.700    162 326 bytes   318 705 bytes   00:59:50.253
10              1:00:46.100     0:18:54.716     31 035 kbps     46 513 kbps     01:16:03.976    37 499 kbps     01:05:05.026    35 529 kbps     01:15:23.060    161 801 bytes   451 332 bytes   01:18:15.357
11              1:19:40.817     0:10:38.679     31 548 kbps     47 010 kbps     01:28:04.028    36 783 kbps     01:25:21.491    34 765 kbps     01:25:19.322    164 479 bytes   439 936 bytes   01:22:54.928
12              1:30:19.497     0:03:04.767     31 562 kbps     41 207 kbps     01:31:05.084    35 865 kbps     01:30:48.234    33 789 kbps     01:30:43.271    164 548 bytes   409 584 bytes   01:32:02.016
13              1:33:24.265     0:02:43.705     30 858 kbps     43 860 kbps     01:36:05.634    36 377 kbps     01:34:30.790    34 641 kbps     01:34:31.040    160 879 bytes   423 800 bytes   01:33:56.047
14              1:36:07.970     0:05:39.839     31 635 kbps     48 316 kbps     01:36:13.684    36 588 kbps     01:40:11.755    35 578 kbps     01:40:12.965    164 930 bytes   407 107 bytes   01:37:55.494
15              1:41:47.810     0:04:10.208     30 859 kbps     45 938 kbps     01:43:19.359    36 042 kbps     01:43:17.232    35 177 kbps     01:44:23.882    161 182 bytes   396 132 bytes   01:43:19.484
16              1:45:58.018     0:04:00.573     13 797 kbps     20 945 kbps     01:47:32.737    19 372 kbps     01:47:31.820    18 207 kbps     01:47:29.443    72 156 bytes    296 386 bytes   01:48:39.095
STREAM DIAGNOSTICS:
File            PID             Type            Codec           Language                Seconds                 Bitrate                 Bytes           Packets
----            ---             ----            -----           --------                --------------          --------------          -------------   -----
00023.M2TS      4113 (0x1011)   0xEA            VC-1                                    6598,467                30 505                  25 160 650 275  136 838 144
00023.M2TS      4352 (0x1100)   0x82            DTS             jpn (Japanese)          6598,467                768                     633 464 832     3 711 708
00023.M2TS      4353 (0x1101)   0x86            DTS-HD MA       eng (English)           6598,467                2 688                   2 216 750 492   13 079 608
00023.M2TS      4354 (0x1102)   0x81            AC3             rus (Russian)           6598,467                384                     316 646 400     1 855 350
00023.M2TS      4355 (0x1103)   0x81            AC3             rus (Russian)           6598,467                192                     158 323 968     1 030 755
00023.M2TS      4356 (0x1104)   0x81            AC3             rus (Russian)           6598,467                384                     316 646 400     1 855 350
00023.M2TS      4357 (0x1105)   0x81            AC3             rus (Russian)           6598,467                192                     158 338 560     1 030 850
00023.M2TS      4358 (0x1106)   0x81            AC3             rus (Russian)           6598,467                192                     158 323 968     1 030 755
00023.M2TS      4359 (0x1107)   0x81            AC3             rus (Russian)           6598,467                192                     158 323 968     1 030 755
00023.M2TS      4360 (0x1108)   0x81            AC3             rus (Russian)           6598,467                192                     158 323 968     1 030 755
00023.M2TS      4361 (0x1109)   0x81            AC3             rus (Russian)           6598,467                192                     158 297 856     1 030 585
00023.M2TS      4608 (0x1200)   0x90            PGS             jpn (Japanese)          6598,467                15                      12 316 917      72 644
00023.M2TS      4609 (0x1201)   0x90            PGS             eng (English)           6598,467                38                      31 234 842      179 293
00023.M2TS      4610 (0x1202)   0x90            PGS             fra (French)            6598,467                23                      18 770 817      108 481
00023.M2TS      4611 (0x1203)   0x90            PGS             ita (Italian)           6598,467                31                      25 542 594      145 926
00023.M2TS      4612 (0x1204)   0x90            PGS             deu (German)            6598,467                31                      25 606 163      146 013
00023.M2TS      4613 (0x1205)   0x90            PGS             spa (Spanish)           6598,467                30                      24 579 128      140 766
00023.M2TS      4614 (0x1206)   0x90            PGS             por (Portuguese)        6598,467                22                      18 474 052      107 044
00023.M2TS      4615 (0x1207)   0x90            PGS             spa (Spanish)           6598,467                23                      18 881 024      109 273
00023.M2TS      4616 (0x1208)   0x90            PGS             ces (Czech)             6598,467                29                      23 698 267      135 933
00023.M2TS      4617 (0x1209)   0x90            PGS             dan (Danish)            6598,467                30                      24 440 693      139 692
00023.M2TS      4618 (0x120A)   0x90            PGS             nld (Dutch)             6598,467                18                      15 143 447      87 637
00023.M2TS      4619 (0x120B)   0x90            PGS             fin (Finnish)           6598,467                21                      17 508 098      100 147
00023.M2TS      4620 (0x120C)   0x90            PGS             ell (Greek)             6598,467                19                      15 282 330      87 139
00023.M2TS      4621 (0x120D)   0x90            PGS             hun (Hungarian)         6598,467                31                      25 804 472      147 415
00023.M2TS      4622 (0x120E)   0x90            PGS             kor (Korean)            6598,467                17                      14 056 527      83 259
00023.M2TS      4623 (0x120F)   0x90            PGS             nor (Norwegian)         6598,467                19                      15 333 158      87 257
00023.M2TS      4624 (0x1210)   0x90            PGS             pol (Polish)            6598,467                32                      26 050 337      148 717
00023.M2TS      4625 (0x1211)   0x90            PGS             por (Portuguese)        6598,467                34                      27 749 923      157 973
00023.M2TS      4626 (0x1212)   0x90            PGS             rus (Russian)           6598,467                32                      26 595 580      151 785
00023.M2TS      4627 (0x1213)   0x90            PGS             swe (Swedish)           6598,467                28                      23 234 291      132 837
00023.M2TS      4628 (0x1214)   0x90            PGS             tha (Thai)              6598,467                16                      13 183 289      77 704
00023.M2TS      4629 (0x1215)   0x90            PGS             tur (Turkish)           6598,467                33                      27 394 628      156 042
00023.M2TS      4630 (0x1216)   0x90            PGS             zho (Chinese)           6598,467                25                      20 581 141      118 995
00023.M2TS      4631 (0x1217)   0x90            PGS             jpn (Japanese)          6598,467                0                       188 772         1 108
00023.M2TS      4632 (0x1218)   0x90            PGS             fra (French)            6598,467                0                       173 384         1 005
00023.M2TS      4633 (0x1219)   0x90            PGS             ita (Italian)           6598,467                0                       283 996         1 656
00023.M2TS      4634 (0x121A)   0x90            PGS             deu (German)            6598,467                0                       243 918         1 422
00023.M2TS      4635 (0x121B)   0x90            PGS             spa (Spanish)           6598,467                1                       445 540         2 604
00023.M2TS      4636 (0x121C)   0x90            PGS             por (Portuguese)        6598,467                0                       52 784          315
00023.M2TS      4637 (0x121D)   0x90            PGS             spa (Spanish)           6598,467                0                       63 804          383
QUICK SUMMARY:
Disc Title: Sudden.Death.1995.BD
Disc Size: 33 013 033 858 bytes
Protection: AACS
BD-Java: Yes
Playlist: 00800.MPLS
Size: 31 996 102 656 bytes
Length: 1:49:58.592
Total Bitrate: 38,79 Mbps
Video: VC-1 Video / 30504 kbps / 1080p / 23,976 fps / 16:9 / Advanced Profile 3
Audio: Japanese / DTS Audio / 5.1 / 48 kHz / 768 kbps / 24-bit
Audio: English / DTS-HD Master Audio / 5.1 / 48 kHz / 2688 kbps / 24-bit (DTS Core: 5.1 / 48 kHz / 1509 kbps / 24-bit)
Audio: Russian / Dolby Digital Audio / 5.1 / 48 kHz / 384 kbps
Audio: Russian / Dolby Digital Audio / 2.0 / 48 kHz / 192 kbps
Audio: Russian / Dolby Digital Audio / 5.1 / 48 kHz / 384 kbps
Audio: Russian / Dolby Digital Audio / 2.0 / 48 kHz / 192 kbps
Audio: Russian / Dolby Digital Audio / 2.0 / 48 kHz / 192 kbps
Audio: Russian / Dolby Digital Audio / 2.0 / 48 kHz / 192 kbps
Audio: Russian / Dolby Digital Audio / 2.0 / 48 kHz / 192 kbps
Audio: Russian / Dolby Digital Audio / 2.0 / 48 kHz / 192 kbps
Subtitle: Japanese / 14,933 kbps
Subtitle: English / 37,868 kbps
Subtitle: French / 22,757 kbps
Subtitle: Italian / 30,967 kbps
Subtitle: German / 31,044 kbps
Subtitle: Spanish / 29,799 kbps
Subtitle: Portuguese / 22,398 kbps
Subtitle: Spanish / 22,891 kbps
Subtitle: Czech / 28,731 kbps
Subtitle: Danish / 29,631 kbps
Subtitle: Dutch / 18,360 kbps
Subtitle: Finnish / 21,226 kbps
Subtitle: Greek / 18,528 kbps
Subtitle: Hungarian / 31,285 kbps
Subtitle: Korean / 17,042 kbps
Subtitle: Norwegian / 18,590 kbps
Subtitle: Polish / 31,583 kbps
Subtitle: Portuguese / 33,643 kbps
Subtitle: Russian / 32,244 kbps
Subtitle: Swedish / 28,169 kbps
Subtitle: Thai / 15,983 kbps
Subtitle: Turkish / 33,213 kbps
Subtitle: Chinese / 24,952 kbps
Subtitle: Japanese / 0,229 kbps
Subtitle: French / 0,210 kbps
Subtitle: Italian / 0,344 kbps
Subtitle: German / 0,296 kbps
Subtitle: Spanish / 0,540 kbps
Subtitle: Portuguese / 0,064 kbps
Subtitle: Spanish / 0,077 kbps
********************
PLAYLIST: 01055.MPLS
********************
Total   Video
Title                                                           Codec   Length  Movie Size      Disc Size       Bitrate Bitrate Main Audio Track                          Secondary Audio Track
-----                                                           ------  ------- --------------  --------------  ------- ------- ------------------                        ---------------------
01055.MPLS                                                      VC-1    0:00:59 136 617 984     33 013 033 858  18,51   17,66
DISC INFO:
Disc Title:     Sudden.Death.1995.BD
Disc Size:      33 013 033 858 bytes
Protection:     AACS
BD-Java:        Yes
BDInfo:         0.5.8
PLAYLIST REPORT:
Name:                   01055.MPLS
Length:                 0:00:59.058 (h:m:s.ms)
Size:                   136 617 984 bytes
Total Bitrate:          18,51 Mbps
VIDEO:
Codec                   Bitrate             Description
-----                   -------             -----------
VC-1 Video              17664 kbps          1080p / 23,976 fps / 16:9 / Advanced Profile 3
FILES:
Name            Time In         Length          Size            Total Bitrate
----            -------         ------          ----            -------------
00016.M2TS      0:00:00.000     0:00:59.058     136 617 984     18 506
CHAPTERS:
Number          Time In         Length          Avg Video Rate  Max 1-Sec Rate  Max 1-Sec Time  Max 5-Sec Rate  Max 5-Sec Time  Max 10Sec Rate  Max 10Sec Time  Avg Frame Size  Max Frame Size  Max Frame Time
------          -------         ------          --------------  --------------  --------------  --------------  --------------  --------------  --------------  --------------  --------------  --------------
1               0:00:00.000     0:00:59.058     17 664 kbps     20 946 kbps     00:00:19.227    19 735 kbps     00:00:18.268    19 206 kbps     00:00:16.015    92 093 bytes    335 137 bytes   00:00:05.004
STREAM DIAGNOSTICS:
File            PID             Type            Codec           Language                Seconds                 Bitrate                 Bytes           Packets
----            ---             ----            -----           --------                --------------          --------------          -------------   -----
00016.M2TS      4113 (0x1011)   0xEA            VC-1                                    58,934                  17 702                  130 403 256     709 569
QUICK SUMMARY:
Disc Title: Sudden.Death.1995.BD
Disc Size: 33 013 033 858 bytes
Protection: AACS
BD-Java: Yes
Playlist: 01055.MPLS
Size: 136 617 984 bytes
Length: 0:00:59.058
Total Bitrate: 18,51 Mbps
Video: VC-1 Video / 17664 kbps / 1080p / 23,976 fps / 16:9 / Advanced Profile 3
********************
PLAYLIST: 01056.MPLS
********************
Total   Video
Title                                                           Codec   Length  Movie Size      Disc Size       Bitrate Bitrate Main Audio Track                          Secondary Audio Track
-----                                                           ------  ------- --------------  --------------  ------- ------- ------------------                        ---------------------
01056.MPLS                                                      VC-1    0:00:59 136 617 984     33 013 033 858  18,51   17,66
DISC INFO:
Disc Title:     Sudden.Death.1995.BD
Disc Size:      33 013 033 858 bytes
Protection:     AACS
BD-Java:        Yes
BDInfo:         0.5.8
PLAYLIST REPORT:
Name:                   01056.MPLS
Length:                 0:00:59.058 (h:m:s.ms)
Size:                   136 617 984 bytes
Total Bitrate:          18,51 Mbps
VIDEO:
Codec                   Bitrate             Description
-----                   -------             -----------
VC-1 Video              17664 kbps          1080p / 23,976 fps / 16:9 / Advanced Profile 3
FILES:
Name            Time In         Length          Size            Total Bitrate
----            -------         ------          ----            -------------
00017.M2TS      0:00:00.000     0:00:59.058     136 617 984     18 506
CHAPTERS:
Number          Time In         Length          Avg Video Rate  Max 1-Sec Rate  Max 1-Sec Time  Max 5-Sec Rate  Max 5-Sec Time  Max 10Sec Rate  Max 10Sec Time  Avg Frame Size  Max Frame Size  Max Frame Time
------          -------         ------          --------------  --------------  --------------  --------------  --------------  --------------  --------------  --------------  --------------  --------------
1               0:00:00.000     0:00:59.058     17 664 kbps     20 946 kbps     00:00:19.227    19 735 kbps     00:00:18.268    19 206 kbps     00:00:16.015    92 093 bytes    335 137 bytes   00:00:05.004
STREAM DIAGNOSTICS:
File            PID             Type            Codec           Language                Seconds                 Bitrate                 Bytes           Packets
----            ---             ----            -----           --------                --------------          --------------          -------------   -----
00017.M2TS      4113 (0x1011)   0xEA            VC-1                                    58,934                  17 702                  130 403 256     709 569
QUICK SUMMARY:
Disc Title: Sudden.Death.1995.BD
Disc Size: 33 013 033 858 bytes
Protection: AACS
BD-Java: Yes
Playlist: 01056.MPLS
Size: 136 617 984 bytes
Length: 0:00:59.058
Total Bitrate: 18,51 Mbps
Video: VC-1 Video / 17664 kbps / 1080p / 23,976 fps / 16:9 / Advanced Profile 3
********************
PLAYLIST: 00021.MPLS
********************
Total   Video
Title                                                           Codec   Length  Movie Size      Disc Size       Bitrate Bitrate Main Audio Track                          Secondary Audio Track
-----                                                           ------  ------- --------------  --------------  ------- ------- ------------------                        ---------------------
00021.MPLS                                                      VC-1    0:00:53 131 954 688     33 013 033 858  19,62   18,04   DD AC3 5.1 640Kbps
DISC INFO:
Disc Title:     Sudden.Death.1995.BD
Disc Size:      33 013 033 858 bytes
Protection:     AACS
BD-Java:        Yes
BDInfo:         0.5.8
PLAYLIST REPORT:
Name:                   00021.MPLS
Length:                 0:00:53.803 (h:m:s.ms)
Size:                   131 954 688 bytes
Total Bitrate:          19,62 Mbps
VIDEO:
Codec                   Bitrate             Description
-----                   -------             -----------
VC-1 Video              18041 kbps          1080p / 23,976 fps / 16:9 / Advanced Profile 3
AUDIO:
Codec                           Language        Bitrate         Description
-----                           --------        -------         -----------
Dolby Digital Audio             English         640 kbps        5.1 / 48 kHz / 640 kbps / DN -4dB
FILES:
Name            Time In         Length          Size            Total Bitrate
----            -------         ------          ----            -------------
00021.M2TS      0:00:00.000     0:00:53.803     131 954 688     19 620
CHAPTERS:
Number          Time In         Length          Avg Video Rate  Max 1-Sec Rate  Max 1-Sec Time  Max 5-Sec Rate  Max 5-Sec Time  Max 10Sec Rate  Max 10Sec Time  Avg Frame Size  Max Frame Size  Max Frame Time
------          -------         ------          --------------  --------------  --------------  --------------  --------------  --------------  --------------  --------------  --------------  --------------
1               0:00:00.000     0:00:53.803     18 041 kbps     34 402 kbps     00:00:16.516    24 087 kbps     00:00:16.516    21 437 kbps     00:00:15.348    94 057 bytes    235 657 bytes   00:00:16.558
STREAM DIAGNOSTICS:
File            PID             Type            Codec           Language                Seconds                 Bitrate                 Bytes           Packets
----            ---             ----            -----           --------                --------------          --------------          -------------   -----
00021.M2TS      4113 (0x1011)   0xEA            VC-1                                    53,679                  18 083                  121 334 040     660 206
00021.M2TS      4352 (0x1100)   0x81            AC3             eng (English)           53,679                  642                     4 305 920       25 230
QUICK SUMMARY:
Disc Title: Sudden.Death.1995.BD
Disc Size: 33 013 033 858 bytes
Protection: AACS
BD-Java: Yes
Playlist: 00021.MPLS
Size: 131 954 688 bytes
Length: 0:00:53.803
Total Bitrate: 19,62 Mbps
Video: VC-1 Video / 18041 kbps / 1080p / 23,976 fps / 16:9 / Advanced Profile 3
Audio: English / Dolby Digital Audio / 5.1 / 48 kHz / 640 kbps / DN -4dB
********************
PLAYLIST: 00131.MPLS
********************
Total   Video
Title                                                           Codec   Length  Movie Size      Disc Size       Bitrate Bitrate Main Audio Track                          Secondary Audio Track
-----                                                           ------  ------- --------------  --------------  ------- ------- ------------------                        ---------------------
00131.MPLS                                                      MPEG-2  0:00:50 2 116 032       33 013 033 858  0,34    0,14
DISC INFO:
Disc Title:     Sudden.Death.1995.BD
Disc Size:      33 013 033 858 bytes
Protection:     AACS
BD-Java:        Yes
BDInfo:         0.5.8
PLAYLIST REPORT:
Name:                   00131.MPLS
Length:                 0:00:50.091 (h:m:s.ms)
Size:                   2 116 032 bytes
Total Bitrate:          0,34 Mbps
VIDEO:
Codec                   Bitrate             Description
-----                   -------             -----------
MPEG-2 Video            137 kbps            1080p / 23,976 fps / 16:9
FILES:
Name            Time In         Length          Size            Total Bitrate
----            -------         ------          ----            -------------
00068.M2TS      0:00:00.000     0:00:10.009     313 920         126
00068.M2TS      0:00:10.009     0:00:10.009     281 856         113
00068.M2TS      0:00:20.019     0:00:10.009     282 240         113
00068.M2TS      0:00:30.029     0:00:10.009     340 032         136
00068.M2TS      0:00:40.039     0:00:10.009     619 008         248
00068.M2TS      0:00:50.049     0:00:00.041     278 976         53 506
CHAPTERS:
Number          Time In         Length          Avg Video Rate  Max 1-Sec Rate  Max 1-Sec Time  Max 5-Sec Rate  Max 5-Sec Time  Max 10Sec Rate  Max 10Sec Time  Avg Frame Size  Max Frame Size  Max Frame Time
------          -------         ------          --------------  --------------  --------------  --------------  --------------  --------------  --------------  --------------  --------------  --------------
1               0:00:00.000     0:00:10.009     357 kbps        167 kbps        00:00:09.968    167 kbps        00:00:09.968    167 kbps        00:00:09.968    223 433 bytes   238 319 bytes   00:00:09.968
2               0:00:10.009     0:00:10.009     167 kbps        167 kbps        00:00:19.978    167 kbps        00:00:19.978    167 kbps        00:00:19.978    208 546 bytes   208 546 bytes   00:00:29.988
3               0:00:20.019     0:00:10.009     211 kbps        211 kbps        00:00:29.988    211 kbps        00:00:29.988    211 kbps        00:00:29.988    264 381 bytes   264 381 bytes   00:00:39.998
4               0:00:30.029     0:00:10.009     211 kbps        211 kbps        00:00:39.998    211 kbps        00:00:39.998    211 kbps        00:00:39.998    263 738 bytes   263 738 bytes   00:00:50.008
5               0:00:40.039     0:00:10.051     3 228 kbps      420 kbps        00:00:29.946    420 kbps        00:00:29.946    420 kbps        00:00:29.946    253 510 bytes   264 381 bytes   00:00:39.998
STREAM DIAGNOSTICS:
File            PID             Type            Codec           Language                Seconds                 Bitrate                 Bytes           Packets
----            ---             ----            -----           --------                --------------          --------------          -------------   -----
00068.M2TS      4113 (0x1011)   0x02            MPEG-2                                  40,040                  289                     1 447 268       7 869
QUICK SUMMARY:
Disc Title: Sudden.Death.1995.BD
Disc Size: 33 013 033 858 bytes
Protection: AACS
BD-Java: Yes
Playlist: 00131.MPLS
Size: 2 116 032 bytes
Length: 0:00:50.091
Total Bitrate: 0,34 Mbps
Video: MPEG-2 Video / 137 kbps / 1080p / 23,976 fps / 16:9
********************
PLAYLIST: 00022.MPLS
********************
Total   Video
Title                                                           Codec   Length  Movie Size      Disc Size       Bitrate Bitrate Main Audio Track                          Secondary Audio Track
-----                                                           ------  ------- --------------  --------------  ------- ------- ------------------                        ---------------------
00022.MPLS                                                      VC-1    0:00:48 119 070 720     33 013 033 858  19,60   18,03   DD AC3 5.1 640Kbps
DISC INFO:
Disc Title:     Sudden.Death.1995.BD
Disc Size:      33 013 033 858 bytes
Protection:     AACS
BD-Java:        Yes
BDInfo:         0.5.8
PLAYLIST REPORT:
Name:                   00022.MPLS
Length:                 0:00:48.590 (h:m:s.ms)
Size:                   119 070 720 bytes
Total Bitrate:          19,60 Mbps
VIDEO:
Codec                   Bitrate             Description
-----                   -------             -----------
VC-1 Video              18026 kbps          1080p / 23,976 fps / 16:9 / Advanced Profile 3
AUDIO:
Codec                           Language        Bitrate         Description
-----                           --------        -------         -----------
Dolby Digital Audio             English         640 kbps        5.1 / 48 kHz / 640 kbps / DN -4dB
FILES:
Name            Time In         Length          Size            Total Bitrate
----            -------         ------          ----            -------------
00022.M2TS      0:00:00.000     0:00:48.590     119 070 720     19 604
CHAPTERS:
Number          Time In         Length          Avg Video Rate  Max 1-Sec Rate  Max 1-Sec Time  Max 5-Sec Rate  Max 5-Sec Time  Max 10Sec Rate  Max 10Sec Time  Avg Frame Size  Max Frame Size  Max Frame Time
------          -------         ------          --------------  --------------  --------------  --------------  --------------  --------------  --------------  --------------  --------------  --------------
1               0:00:00.000     0:00:48.590     18 026 kbps     32 156 kbps     00:00:11.302    22 795 kbps     00:00:10.969    20 475 kbps     00:00:10.135    93 979 bytes    235 657 bytes   00:00:11.344
STREAM DIAGNOSTICS:
File            PID             Type            Codec           Language                Seconds                 Bitrate                 Bytes           Packets
----            ---             ----            -----           --------                --------------          --------------          -------------   -----
00022.M2TS      4113 (0x1011)   0xEA            VC-1                                    48,465                  18 072                  109 484 989     595 740
00022.M2TS      4352 (0x1100)   0x81            AC3             eng (English)           48,465                  642                     3 888 640       22 785
QUICK SUMMARY:
Disc Title: Sudden.Death.1995.BD
Disc Size: 33 013 033 858 bytes
Protection: AACS
BD-Java: Yes
Playlist: 00022.MPLS
Size: 119 070 720 bytes
Length: 0:00:48.590
Total Bitrate: 19,60 Mbps
Video: VC-1 Video / 18026 kbps / 1080p / 23,976 fps / 16:9 / Advanced Profile 3
Audio: English / Dolby Digital Audio / 5.1 / 48 kHz / 640 kbps / DN -4dB
********************
PLAYLIST: 00183.MPLS
********************
Total   Video
Title                                                           Codec   Length  Movie Size      Disc Size       Bitrate Bitrate Main Audio Track                          Secondary Audio Track
-----                                                           ------  ------- --------------  --------------  ------- ------- ------------------                        ---------------------
00183.MPLS                                                      AVC     0:00:29 69 341 184      33 013 033 858  19,08   17,99   DD AC3 2.0 192Kbps
DISC INFO:
Disc Title:     Sudden.Death.1995.BD
Disc Size:      33 013 033 858 bytes
Protection:     AACS
BD-Java:        Yes
BDInfo:         0.5.8
PLAYLIST REPORT:
Name:                   00183.MPLS
Length:                 0:00:29.070 (h:m:s.ms)
Size:                   69 341 184 bytes
Total Bitrate:          19,08 Mbps
VIDEO:
Codec                   Bitrate             Description
-----                   -------             -----------
MPEG-4 AVC Video        17987 kbps          1080p / 23,976 fps / 16:9 / High Profile 4.1
AUDIO:
Codec                           Language        Bitrate         Description
-----                           --------        -------         -----------
Dolby Digital Audio             English         192 kbps        2.0 / 48 kHz / 192 kbps / DN -4dB
FILES:
Name            Time In         Length          Size            Total Bitrate
----            -------         ------          ----            -------------
00191.M2TS      0:00:00.000     0:00:29.070     69 341 184      19 082
CHAPTERS:
Number          Time In         Length          Avg Video Rate  Max 1-Sec Rate  Max 1-Sec Time  Max 5-Sec Rate  Max 5-Sec Time  Max 10Sec Rate  Max 10Sec Time  Avg Frame Size  Max Frame Size  Max Frame Time
------          -------         ------          --------------  --------------  --------------  --------------  --------------  --------------  --------------  --------------  --------------  --------------
1               0:00:00.000     0:00:29.070     17 987 kbps     28 640 kbps     00:00:07.215    21 594 kbps     00:00:04.754    19 819 kbps     00:00:00.583    93 776 bytes    498 177 bytes   00:00:11.094
STREAM DIAGNOSTICS:
File            PID             Type            Codec           Language                Seconds                 Bitrate                 Bytes           Packets
----            ---             ----            -----           --------                --------------          --------------          -------------   -----
00191.M2TS      4113 (0x1011)   0x1B            AVC                                     28,904                  18 091                  65 361 595      355 611
00191.M2TS      4352 (0x1100)   0x81            AC3             eng (English)           28,904                  193                     698 112         4 545
QUICK SUMMARY:
Disc Title: Sudden.Death.1995.BD
Disc Size: 33 013 033 858 bytes
Protection: AACS
BD-Java: Yes
Playlist: 00183.MPLS
Size: 69 341 184 bytes
Length: 0:00:29.070
Total Bitrate: 19,08 Mbps
Video: MPEG-4 AVC Video / 17987 kbps / 1080p / 23,976 fps / 16:9 / High Profile 4.1
Audio: English / Dolby Digital Audio / 2.0 / 48 kHz / 192 kbps / DN -4dB
********************
PLAYLIST: 01104.MPLS
********************
Total   Video
Title                                                           Codec   Length  Movie Size      Disc Size       Bitrate Bitrate Main Audio Track                          Secondary Audio Track
-----                                                           ------  ------- --------------  --------------  ------- ------- ------------------                        ---------------------
01104.MPLS                                                      VC-1    0:00:26 56 623 104      33 013 033 858  17,41   15,92   DD AC3 5.1 640Kbps
DISC INFO:
Disc Title:     Sudden.Death.1995.BD
Disc Size:      33 013 033 858 bytes
Protection:     AACS
BD-Java:        Yes
BDInfo:         0.5.8
PLAYLIST REPORT:
Name:                   01104.MPLS
Length:                 0:00:26.025 (h:m:s.ms)
Size:                   56 623 104 bytes
Total Bitrate:          17,41 Mbps
VIDEO:
Codec                   Bitrate             Description
-----                   -------             -----------
VC-1 Video              15917 kbps          1080p / 23,976 fps / 16:9 / Advanced Profile 3
AUDIO:
Codec                           Language        Bitrate         Description
-----                           --------        -------         -----------
Dolby Digital Audio             English         640 kbps        5.1 / 48 kHz / 640 kbps / DN -4dB
FILES:
Name            Time In         Length          Size            Total Bitrate
----            -------         ------          ----            -------------
50355.M2TS      0:00:00.000     0:00:26.025     56 623 104      17 405
CHAPTERS:
Number          Time In         Length          Avg Video Rate  Max 1-Sec Rate  Max 1-Sec Time  Max 5-Sec Rate  Max 5-Sec Time  Max 10Sec Rate  Max 10Sec Time  Avg Frame Size  Max Frame Size  Max Frame Time
------          -------         ------          --------------  --------------  --------------  --------------  --------------  --------------  --------------  --------------  --------------  --------------
1               0:00:00.000     0:00:26.025     15 917 kbps     24 283 kbps     00:00:16.266    21 530 kbps     00:00:15.598    20 342 kbps     00:00:11.553    86 159 bytes    281 012 bytes   00:00:19.019
STREAM DIAGNOSTICS:
File            PID             Type            Codec           Language                Seconds                 Bitrate                 Bytes           Packets
----            ---             ----            -----           --------                --------------          --------------          -------------   -----
50355.M2TS      4113 (0x1011)   0xEA            VC-1                                    25,943                  15 968                  51 781 434      281 800
50355.M2TS      4352 (0x1100)   0x81            AC3             eng (English)           25,943                  643                     2 083 840       12 210
QUICK SUMMARY:
Disc Title: Sudden.Death.1995.BD
Disc Size: 33 013 033 858 bytes
Protection: AACS
BD-Java: Yes
Playlist: 01104.MPLS
Size: 56 623 104 bytes
Length: 0:00:26.025
Total Bitrate: 17,41 Mbps
Video: VC-1 Video / 15917 kbps / 1080p / 23,976 fps / 16:9 / Advanced Profile 3
Audio: English / Dolby Digital Audio / 5.1 / 48 kHz / 640 kbps / DN -4dB
********************
PLAYLIST: 00011.MPLS
********************
Total   Video
Title                                                           Codec   Length  Movie Size      Disc Size       Bitrate Bitrate Main Audio Track                          Secondary Audio Track
-----                                                           ------  ------- --------------  --------------  ------- ------- ------------------                        ---------------------
00011.MPLS                                                      VC-1    0:00:25 55 947 264      33 013 033 858  17,45   15,96   DD AC3 5.1 640Kbps
DISC INFO:
Disc Title:     Sudden.Death.1995.BD
Disc Size:      33 013 033 858 bytes
Protection:     AACS
BD-Java:        Yes
BDInfo:         0.5.8
PLAYLIST REPORT:
Name:                   00011.MPLS
Length:                 0:00:25.650 (h:m:s.ms)
Size:                   55 947 264 bytes
Total Bitrate:          17,45 Mbps
VIDEO:
Codec                   Bitrate             Description
-----                   -------             -----------
VC-1 Video              15958 kbps          1080p / 23,976 fps / 16:9 / Advanced Profile 3
AUDIO:
Codec                           Language        Bitrate         Description
-----                           --------        -------         -----------
Dolby Digital Audio             English         640 kbps        5.1 / 48 kHz / 640 kbps / DN -4dB
FILES:
Name            Time In         Length          Size            Total Bitrate
----            -------         ------          ----            -------------
00018.M2TS      0:00:00.000     0:00:25.650     55 947 264      17 449
CHAPTERS:
Number          Time In         Length          Avg Video Rate  Max 1-Sec Rate  Max 1-Sec Time  Max 5-Sec Rate  Max 5-Sec Time  Max 10Sec Rate  Max 10Sec Time  Avg Frame Size  Max Frame Size  Max Frame Time
------          -------         ------          --------------  --------------  --------------  --------------  --------------  --------------  --------------  --------------  --------------  --------------
1               0:00:00.000     0:00:25.650     15 958 kbps     23 294 kbps     00:00:15.390    20 839 kbps     00:00:12.595    19 753 kbps     00:00:10.635    86 430 bytes    238 454 bytes   00:00:18.601
STREAM DIAGNOSTICS:
File            PID             Type            Codec           Language                Seconds                 Bitrate                 Bytes           Packets
----            ---             ----            -----           --------                --------------          --------------          -------------   -----
00018.M2TS      4113 (0x1011)   0xEA            VC-1                                    25,567                  16 010                  51 166 816      278 460
00018.M2TS      4352 (0x1100)   0x81            AC3             eng (English)           25,567                  642                     2 053 120       12 030
QUICK SUMMARY:
Disc Title: Sudden.Death.1995.BD
Disc Size: 33 013 033 858 bytes
Protection: AACS
BD-Java: Yes
Playlist: 00011.MPLS
Size: 55 947 264 bytes
Length: 0:00:25.650
Total Bitrate: 17,45 Mbps
Video: VC-1 Video / 15958 kbps / 1080p / 23,976 fps / 16:9 / Advanced Profile 3
Audio: English / Dolby Digital Audio / 5.1 / 48 kHz / 640 kbps / DN -4dB
********************
PLAYLIST: 01102.MPLS
********************
Total   Video
Title                                                           Codec   Length  Movie Size      Disc Size       Bitrate Bitrate Main Audio Track                          Secondary Audio Track
-----                                                           ------  ------- --------------  --------------  ------- ------- ------------------                        ---------------------
01102.MPLS                                                      VC-1    0:00:25 55 947 264      33 013 033 858  17,45   15,96   DD AC3 5.1 640Kbps
DISC INFO:
Disc Title:     Sudden.Death.1995.BD
Disc Size:      33 013 033 858 bytes
Protection:     AACS
BD-Java:        Yes
BDInfo:         0.5.8
PLAYLIST REPORT:
Name:                   01102.MPLS
Length:                 0:00:25.650 (h:m:s.ms)
Size:                   55 947 264 bytes
Total Bitrate:          17,45 Mbps
VIDEO:
Codec                   Bitrate             Description
-----                   -------             -----------
VC-1 Video              15958 kbps          1080p / 23,976 fps / 16:9 / Advanced Profile 3
AUDIO:
Codec                           Language        Bitrate         Description
-----                           --------        -------         -----------
Dolby Digital Audio             English         640 kbps        5.1 / 48 kHz / 640 kbps / DN -4dB
FILES:
Name            Time In         Length          Size            Total Bitrate
----            -------         ------          ----            -------------
00014.M2TS      0:00:00.000     0:00:25.650     55 947 264      17 449
CHAPTERS:
Number          Time In         Length          Avg Video Rate  Max 1-Sec Rate  Max 1-Sec Time  Max 5-Sec Rate  Max 5-Sec Time  Max 10Sec Rate  Max 10Sec Time  Avg Frame Size  Max Frame Size  Max Frame Time
------          -------         ------          --------------  --------------  --------------  --------------  --------------  --------------  --------------  --------------  --------------  --------------
1               0:00:00.000     0:00:25.650     15 958 kbps     23 294 kbps     00:00:15.390    20 839 kbps     00:00:12.595    19 753 kbps     00:00:10.635    86 430 bytes    238 454 bytes   00:00:18.601
STREAM DIAGNOSTICS:
File            PID             Type            Codec           Language                Seconds                 Bitrate                 Bytes           Packets
----            ---             ----            -----           --------                --------------          --------------          -------------   -----
00014.M2TS      4113 (0x1011)   0xEA            VC-1                                    25,567                  16 010                  51 166 816      278 460
00014.M2TS      4352 (0x1100)   0x81            AC3             eng (English)           25,567                  642                     2 053 120       12 030
QUICK SUMMARY:
Disc Title: Sudden.Death.1995.BD
Disc Size: 33 013 033 858 bytes
Protection: AACS
BD-Java: Yes
Playlist: 01102.MPLS
Size: 55 947 264 bytes
Length: 0:00:25.650
Total Bitrate: 17,45 Mbps
Video: VC-1 Video / 15958 kbps / 1080p / 23,976 fps / 16:9 / Advanced Profile 3
Audio: English / Dolby Digital Audio / 5.1 / 48 kHz / 640 kbps / DN -4dB
********************
PLAYLIST: 01103.MPLS
********************
Total   Video
Title                                                           Codec   Length  Movie Size      Disc Size       Bitrate Bitrate Main Audio Track                          Secondary Audio Track
-----                                                           ------  ------- --------------  --------------  ------- ------- ------------------                        ---------------------
01103.MPLS                                                      VC-1    0:00:25 55 947 264      33 013 033 858  17,45   15,96   DD AC3 5.1 640Kbps
DISC INFO:
Disc Title:     Sudden.Death.1995.BD
Disc Size:      33 013 033 858 bytes
Protection:     AACS
BD-Java:        Yes
BDInfo:         0.5.8
PLAYLIST REPORT:
Name:                   01103.MPLS
Length:                 0:00:25.650 (h:m:s.ms)
Size:                   55 947 264 bytes
Total Bitrate:          17,45 Mbps
VIDEO:
Codec                   Bitrate             Description
-----                   -------             -----------
VC-1 Video              15958 kbps          1080p / 23,976 fps / 16:9 / Advanced Profile 3
AUDIO:
Codec                           Language        Bitrate         Description
-----                           --------        -------         -----------
Dolby Digital Audio             English         640 kbps        5.1 / 48 kHz / 640 kbps / DN -4dB
FILES:
Name            Time In         Length          Size            Total Bitrate
----            -------         ------          ----            -------------
00015.M2TS      0:00:00.000     0:00:25.650     55 947 264      17 449
CHAPTERS:
Number          Time In         Length          Avg Video Rate  Max 1-Sec Rate  Max 1-Sec Time  Max 5-Sec Rate  Max 5-Sec Time  Max 10Sec Rate  Max 10Sec Time  Avg Frame Size  Max Frame Size  Max Frame Time
------          -------         ------          --------------  --------------  --------------  --------------  --------------  --------------  --------------  --------------  --------------  --------------
1               0:00:00.000     0:00:25.650     15 958 kbps     23 294 kbps     00:00:15.390    20 839 kbps     00:00:12.595    19 753 kbps     00:00:10.635    86 430 bytes    238 454 bytes   00:00:18.601
STREAM DIAGNOSTICS:
File            PID             Type            Codec           Language                Seconds                 Bitrate                 Bytes           Packets
----            ---             ----            -----           --------                --------------          --------------          -------------   -----
00015.M2TS      4113 (0x1011)   0xEA            VC-1                                    25,567                  16 010                  51 166 816      278 460
00015.M2TS      4352 (0x1100)   0x81            AC3             eng (English)           25,567                  642                     2 053 120       12 030
QUICK SUMMARY:
Disc Title: Sudden.Death.1995.BD
Disc Size: 33 013 033 858 bytes
Protection: AACS
BD-Java: Yes
Playlist: 01103.MPLS
Size: 55 947 264 bytes
Length: 0:00:25.650
Total Bitrate: 17,45 Mbps
Video: VC-1 Video / 15958 kbps / 1080p / 23,976 fps / 16:9 / Advanced Profile 3
Audio: English / Dolby Digital Audio / 5.1 / 48 kHz / 640 kbps / DN -4dB
********************
PLAYLIST: 00074.MPLS
********************
Total   Video
Title                                                           Codec   Length  Movie Size      Disc Size       Bitrate Bitrate Main Audio Track                          Secondary Audio Track
-----                                                           ------  ------- --------------  --------------  ------- ------- ------------------                        ---------------------
00074.MPLS                                                      MPEG-2  0:00:20 1 177 728       33 013 033 858  0,47    0,20
DISC INFO:
Disc Title:     Sudden.Death.1995.BD
Disc Size:      33 013 033 858 bytes
Protection:     AACS
BD-Java:        Yes
BDInfo:         0.5.8
PLAYLIST REPORT:
Name:                   00074.MPLS
Length:                 0:00:20.061 (h:m:s.ms)
Size:                   1 177 728 bytes
Total Bitrate:          0,47 Mbps
VIDEO:
Codec                   Bitrate             Description
-----                   -------             -----------
MPEG-2 Video            199 kbps            1080p / 23,976 fps / 16:9
FILES:
Name            Time In         Length          Size            Total Bitrate
----            -------         ------          ----            -------------
00041.M2TS      0:00:00.000     0:00:10.009     313 920         126
00041.M2TS      0:00:10.009     0:00:10.009     595 392         238
00041.M2TS      0:00:20.019     0:00:00.041     268 416         51 481
CHAPTERS:
Number          Time In         Length          Avg Video Rate  Max 1-Sec Rate  Max 1-Sec Time  Max 5-Sec Rate  Max 5-Sec Time  Max 10Sec Rate  Max 10Sec Time  Avg Frame Size  Max Frame Size  Max Frame Time
------          -------         ------          --------------  --------------  --------------  --------------  --------------  --------------  --------------  --------------  --------------  --------------
1               0:00:00.000     0:00:10.009     392 kbps        201 kbps        00:00:09.968    201 kbps        00:00:09.968    201 kbps        00:00:09.968    245 079 bytes   251 838 bytes   00:00:19.978
2               0:00:10.009     0:00:10.051     802 kbps        401 kbps        00:00:09.926    401 kbps        00:00:09.926    401 kbps        00:00:09.926    251 838 bytes   251 838 bytes   00:00:20.019
STREAM DIAGNOSTICS:
File            PID             Type            Codec           Language                Seconds                 Bitrate                 Bytes           Packets
----            ---             ----            -----           --------                --------------          --------------          -------------   -----
00041.M2TS      4113 (0x1011)   0x02            MPEG-2                                  10,010                  593                     741 995         4 034
QUICK SUMMARY:
Disc Title: Sudden.Death.1995.BD
Disc Size: 33 013 033 858 bytes
Protection: AACS
BD-Java: Yes
Playlist: 00074.MPLS
Size: 1 177 728 bytes
Length: 0:00:20.061
Total Bitrate: 0,47 Mbps
Video: MPEG-2 Video / 199 kbps / 1080p / 23,976 fps / 16:9
********************
PLAYLIST: 00117.MPLS
********************
Total   Video
Title                                                           Codec   Length  Movie Size      Disc Size       Bitrate Bitrate Main Audio Track                          Secondary Audio Track
-----                                                           ------  ------- --------------  --------------  ------- ------- ------------------                        ---------------------
00117.MPLS                                                      MPEG-2  0:00:20 1 008 192       33 013 033 858  0,40    0,17
DISC INFO:
Disc Title:     Sudden.Death.1995.BD
Disc Size:      33 013 033 858 bytes
Protection:     AACS
BD-Java:        Yes
BDInfo:         0.5.8
PLAYLIST REPORT:
Name:                   00117.MPLS
Length:                 0:00:20.061 (h:m:s.ms)
Size:                   1 008 192 bytes
Total Bitrate:          0,40 Mbps
VIDEO:
Codec                   Bitrate             Description
-----                   -------             -----------
MPEG-2 Video            167 kbps            1080p / 23,976 fps / 16:9
FILES:
Name            Time In         Length          Size            Total Bitrate
----            -------         ------          ----            -------------
00061.M2TS      0:00:00.000     0:00:10.009     282 816         113
00061.M2TS      0:00:10.009     0:00:10.009     503 616         202
00061.M2TS      0:00:20.019     0:00:00.041     221 760         42 533
CHAPTERS:
Number          Time In         Length          Avg Video Rate  Max 1-Sec Rate  Max 1-Sec Time  Max 5-Sec Rate  Max 5-Sec Time  Max 10Sec Rate  Max 10Sec Time  Avg Frame Size  Max Frame Size  Max Frame Time
------          -------         ------          --------------  --------------  --------------  --------------  --------------  --------------  --------------  --------------  --------------  --------------
1               0:00:00.000     0:00:10.009     333 kbps        167 kbps        00:00:09.968    167 kbps        00:00:09.968    167 kbps        00:00:09.968    208 546 bytes   208 546 bytes   00:00:09.968
2               0:00:10.009     0:00:10.051     664 kbps        332 kbps        00:00:09.926    332 kbps        00:00:09.926    332 kbps        00:00:09.926    208 546 bytes   208 546 bytes   00:00:20.019
STREAM DIAGNOSTICS:
File            PID             Type            Codec           Language                Seconds                 Bitrate                 Bytes           Packets
----            ---             ----            -----           --------                --------------          --------------          -------------   -----
00061.M2TS      4113 (0x1011)   0x02            MPEG-2                                  10,010                  500                     625 638         3 402
QUICK SUMMARY:
Disc Title: Sudden.Death.1995.BD
Disc Size: 33 013 033 858 bytes
Protection: AACS
BD-Java: Yes
Playlist: 00117.MPLS
Size: 1 008 192 bytes
Length: 0:00:20.061
Total Bitrate: 0,40 Mbps
Video: MPEG-2 Video / 167 kbps / 1080p / 23,976 fps / 16:9

Скриншоты меню

Скриншоты

Скачать

Скачать торрент!

Как скачивать? · Что такое торрент? · Рейтинг и ограничения

Сайт не распространяет и не хранит электронные версии произведений, а лишь предоставляет доступ к создаваемому пользователями каталогу ссылок на торрент-файлы, которые содержат только списки хеш-сумм

[Профиль] [ЛС]
Показать сообщения:    
Ответить на тему

Текущее время: Сегодня 15:56

Часовой пояс: GMT + 4



Вы не можете начинать темы
Вы не можете отвечать на сообщения
Вы не можете редактировать свои сообщения
Вы не можете удалять свои сообщения
Вы не можете голосовать в опросах
Вы не можете прикреплять файлы к сообщениям
Вы не можете скачивать файлы