Слабые проблески / Rushlights (Энтони Стац / Antoni Stutz) [2013, США, триллер, мелодрама, криминал, BDRip 720p] DVO ("Пираты") + Original Eng + Sub Eng

Ответить на тему
 
Автор Сообщение

user ®

Стаж: 7 лет 7 месяцев

Сообщений: 20008

Пост Пост: #1 от 22-Июл-2013 12:20

[Цитировать]

Слабые проблески / Rushlights«All is Fair in Love and Murder.» Год выпуска: 2013
Страна: США
Жанр: триллер, мелодрама, криминал
Продолжительность: 01:36:21
Перевод: Любительский (двухголосый закадровый) "Пираты"
Оригинальная аудиодорожка: Английская
Субтитры: Английские (Full)
Студия: Rushlights
Режиссёр: Энтони Стац / Antoni Stutz
В ролях: Бо Бриджес, Эйдан Куинн, Джош Хендерсон, Хейли Уэбб, Джордан Бриджес, Лорна Рэвер, Джоэль МакКиннон Миллер, Криспиан Белфрадж, Филип Ленковски, Эйлин Грубба и др.
Описание: Парочка молодых влюблённых из Лос-Анджелеса – Билли и Сара решают провернуть небольшую аферу с целью обогащения. Для этого они отправляются в маленький городок в Техасе, чтобы обманным путём получить наследство погибшего парня, который якобы был их товарищем. Однако здесь им предстоит оказаться в кошмарной атмосфере жадности и предательства, когда они столкнутся с представителями местного преступного мира...
  • Кинопоиск
  • IMDB
  • Blu-ray.com
  • Сэмпл
    Качество: BDRip 720p (HDWinG)
    Контейнер: MKV
    Видео: MPEG-4 AVC Video / 6000 kbps / 1280x534p / 23,976 fps / 2.40:1 / 0.366 bit/pix / High@L4.1
    Аудио 1: Русский / Dolby Digital Audio / 2.0 / 48 kHz / 192 kbps / 16-bit / DVO "Пираты"
    Аудио 2: English / DTS Audio / 5.1 / 48 kHz / 1536 kbps / 16-bit / Оригинал

Скриншот с названием фильма

MediaInfo

C:\***\Слабые проблески (Rushlights) 2013, США, триллер, мелодрама, криминал, BDRip 720p GORESEWAGE.mkv
General
Unique ID : 245130129222622483905522392394653053216 (0xB86A587A2B03B225A3E91D27E30D3120)
Complete name : C:\***\Слабые проблески (Rushlights) 2013, США, триллер, мелодрама, криминал, BDRip 720p GORESEWAGE.mkv
Format : Matroska
Format version : Version 4 / Version 2
File size : 5.18 GiB
Duration : 1h 36mn
Overall bit rate : 7 698 Kbps
Movie name : GORESEWAGE
Encoded date : UTC 2013-07-17 14:46:00
Writing application : mkvmerge v6.1.0 ('Old Devil') built on Mar 31 2013 15:21:18
Writing library : libebml v1.3.0 + libmatroska v1.4.0
Video #1
ID : 1
Format : AVC
Format/Info : Advanced Video Codec
Format profile : High@L4.1
Format settings, CABAC : Yes
Format settings, ReFrames : 12 frames
Codec ID : V_MPEG4/ISO/AVC
Duration : 1h 36mn
Bit rate : 6 000 Kbps
Width : 1 280 pixels
Height : 534 pixels
Display aspect ratio : 2.40:1
Frame rate mode : Constant
Frame rate : 23.976 fps
Color space : YUV
Chroma subsampling : 4:2:0
Bit depth : 8 bits
Scan type : Progressive
Bits/(Pixel*Frame) : 0.366
Stream size : 3.93 GiB (76%)
Title : GORESEWAGE
Writing library : x264 core 133 r2334 a3ac64b
Encoding settings : cabac=1 / ref=12 / deblock=1:-3:-3 / analyse=0x3:0x113 / me=umh / subme=11 / psy=1 / psy_rd=1.01:0.00 / mixed_ref=1 / me_range=32 / chroma_me=1 / trellis=2 / 8x8dct=1 / cqm=0 / deadzone=21,11 / fast_pskip=0 / chroma_qp_offset=-4 / threads=9 / lookahead_threads=1 / sliced_threads=0 / nr=0 / decimate=0 / interlaced=0 / bluray_compat=0 / constrained_intra=0 / bframes=6 / b_pyramid=2 / b_adapt=2 / b_bias=0 / direct=3 / weightb=1 / open_gop=0 / weightp=2 / keyint=240 / keyint_min=24 / scenecut=40 / intra_refresh=0 / rc_lookahead=120 / rc=2pass / mbtree=1 / bitrate=6000 / ratetol=1.0 / qcomp=0.70 / qpmin=0 / qpmax=69 / qpstep=4 / cplxblur=20.0 / qblur=0.5 / ip_ratio=1.40 / aq=2:0.80
Language : English
Default : Yes
Forced : No
Audio #2
ID : 2
Format : AC-3
Format/Info : Audio Coding 3
Mode extension : CM (complete main)
Format settings, Endianness : Big
Codec ID : A_AC3
Duration : 1h 36mn
Bit rate mode : Constant
Bit rate : 192 Kbps
Channel(s) : 2 channels
Channel positions : Front: L R
Sampling rate : 48.0 KHz
Bit depth : 16 bits
Compression mode : Lossy
Stream size : 132 MiB (2%)
Title : Любительский (двухголосый закдровый) "Пираты"
Language : Russian
Default : Yes
Forced : No
Audio #3
ID : 3
Format : DTS
Format/Info : Digital Theater Systems
Codec ID : A_DTS
Duration : 1h 36mn
Bit rate mode : Constant
Bit rate : 1 510 Kbps
Channel(s) : 6 channels
Channel positions : Front: L C R, Side: L R, LFE
Sampling rate : 48.0 KHz
Bit depth : 16 bits
Compression mode : Lossy
Stream size : 1.02 GiB (20%)
Title : Оригинал
Language : English
Default : No
Forced : No
Text #4
ID : 4
Format : UTF-8
Codec ID : S_TEXT/UTF8
Codec ID/Info : UTF-8 Plain Text
Title : Full
Language : English
Default : No
Forced : No

Полноразмерный постер

Скачать

Скачать торрент!

Как скачивать? · Что такое торрент? · Рейтинг и ограничения

Сайт не распространяет и не хранит электронные версии произведений, а лишь предоставляет доступ к создаваемому пользователями каталогу ссылок на торрент-файлы, которые содержат только списки хеш-сумм

[Профиль] [ЛС]
Показать сообщения:    
Ответить на тему

Текущее время: Сегодня 12:38

Часовой пояс: GMT + 4



Вы не можете начинать темы
Вы не можете отвечать на сообщения
Вы не можете редактировать свои сообщения
Вы не можете удалять свои сообщения
Вы не можете голосовать в опросах
Вы не можете прикреплять файлы к сообщениям
Вы не можете скачивать файлы