Оно! Ужас из космоса / It! The Terror from Beyond Space (Эдвард Каан / Edward L. Cahn) [1958, США, фантастика, ужасы, WEB-DL 720p] VO (Eraserhead) + Sub Rus + Original Eng

Ответить на тему
 
Автор Сообщение

user ®

Стаж: 7 лет 7 месяцев

Сообщений: 20008

Пост Пост: #1 от 22-Июл-2013 12:20

[Цитировать]

-Оно! Ужас из космоса / It! The Terror from Beyond Space-Страна: США
Жанр: фантастика, ужасы
Год выпуска: 1958
Продолжительность: 01:09:24-Перевод: Одноголосый закадровый Eraserhead
Cубтитры: русские (перевод “Eraserhead")
Оригинальная аудиодорожка: английский-Режиссер: Эдвард Каан / Edward L. Cahn
В ролях: Маршал Томсон / Marshall Thompson, Ширли Пэттерсон / Shirley Patterson, Ким Спэлдин / Kim Spalding, Энн Доран / Ann Doran, Дэббс Грир / Dabbs Greer, Пол Лэнгтон / Paul Langton, Ричард Бенедикт / Richard Benedict, Рэй Корриган / Ray Corrigan-Описание: Именно с этого фильма “содран” фильм “Чужой” Ридли Скотта.
Полковник Эдвард Карратерс - единственный выживший из экспедиции посланной на Марс. Спасательный корабль должен доставить его на землю, где он будет передан суду по обвинению в убийстве остальных членов своего экипажа. Никто не верит Карратерсу, что его экипаж убила жуткая марсианская тварь, которою практически невозможно уничтожить. Но во время посадки, тварь проникла на борт спасательного корабля и устроила кровавую баню…-Сэмпл: http://yadi.sk/d/nNf7Vy3f6x2md-Тип релиза: WEB-DL 720p
Контейнер: MKV
Видео: MPEG-4 AVC Video 3968 kbps 1280x720p / 23.976 fps / High Profile 4.1
Аудио: Dolby Digital Audio Russian 2.0 / 48 kHz / 192 kbps
Аудио: Dolby Digital Audio English 2.0 / 48 kHz / 192 kbps
Формат субтитров: softsub (SRT)

MI

General
Complete name                    : F:\  -= Фильмы =-\Оно! Ужас из космоса (1958. It! The Terror from Beyond Space).mkv
Format                           : Matroska
File size                        : 2.11 GiB
Duration                         : 1h 9mn
Overall bit rate                 : 4 354 Kbps
Movie name                       : Release for RuTracker
Encoded date                     : UTC 2013-07-17 21:15:19
Writing application              : mkvmerge v4.9.1 ('Ich will') сборка от Jul 11 2011 23:53:15
Writing library                  : libebml v1.2.1 + libmatroska v1.1.1
Video
ID                               : 1
Format                           : AVC
Format/Info                      : Advanced Video Codec
Format profile                   : High@L3.1
Format settings, CABAC           : No
Format settings, ReFrames        : 2 frames
Muxing mode                      : Container profile=Unknown@3.1
Codec ID                         : V_MPEG4/ISO/AVC
Duration                         : 1h 9mn
Bit rate mode                    : Variable
Bit rate                         : 3 883 Kbps
Width                            : 1 280 pixels
Height                           : 720 pixels
Display aspect ratio             : 16:9
Frame rate                       : 23.976 fps
Color space                      : YUV
Chroma subsampling               : 4:2:0
Bit depth                        : 8 bits
Scan type                        : Progressive
Bits/(Pixel*Frame)               : 0.176
Stream size                      : 1.88 GiB (89%)
Title                            : It.The.Terror.from.Beyond.Space.1958.720p.WEB-DL.H264-brento
Language                         : English
Color primaries                  : BT.709-5, BT.1361, IEC 61966-2-4, SMPTE RP177
Transfer characteristics         : BT.709-5, BT.1361
Matrix coefficients              : BT.709-5, BT.1361, IEC 61966-2-4 709, SMPTE RP177
Audio #1
ID                               : 2
Format                           : AC-3
Format/Info                      : Audio Coding 3
Mode extension                   : CM (complete main)
Codec ID                         : A_AC3
Duration                         : 1h 9mn
Bit rate mode                    : Constant
Bit rate                         : 192 Kbps
Channel(s)                       : 2 channels
Channel positions                : Front: L R
Sampling rate                    : 48.0 KHz
Bit depth                        : 16 bits
Stream size                      : 95.3 MiB (4%)
Title                            : Eraserhead
Language                         : Russian
Audio #2
ID                               : 3
Format                           : AC-3
Format/Info                      : Audio Coding 3
Mode extension                   : CM (complete main)
Codec ID                         : A_AC3
Duration                         : 1h 9mn
Bit rate mode                    : Constant
Bit rate                         : 192 Kbps
Channel(s)                       : 2 channels
Channel positions                : Front: L R
Sampling rate                    : 48.0 KHz
Bit depth                        : 16 bits
Stream size                      : 95.3 MiB (4%)
Language                         : English
Text
ID                               : 4
Format                           : UTF-8
Codec ID                         : S_TEXT/UTF8
Codec ID/Info                    : UTF-8 Plain Text
Title                            : Eraserhead
Language                         : Russian
Menu
00:00:00.000                     : en:Main Title/Death On Mars
00:04:22.000                     : en:Countdown
00:06:06.000                     : en:"I Didn't Kill Them"
00:08:49.000                     : en:Manhunt, Womanhunt
00:10:39.000                     : en:It Happened On Mars
00:14:28.000                     : en:"What Was That?"
00:19:47.000                     : en:Two Down
00:24:54.000                     : en:Hey, Grenades!
00:29:26.000                     : en:Still Growling
00:33:42.000                     : en:"Maybe Gas?"
00:38:43.000                     : en:Redemption Junction
00:40:18.000                     : en:Diversionary Tactics
00:46:24.000                     : en:Electrocutology
00:51:52.000                     : en:More Blood!
01:00:33.000                     : en:De-Oxygenation
01:08:13.000                     : en:Mars=Death/Credits

Скриншоты


Скачать

Скачать торрент!

Как скачивать? · Что такое торрент? · Рейтинг и ограничения

Сайт не распространяет и не хранит электронные версии произведений, а лишь предоставляет доступ к создаваемому пользователями каталогу ссылок на торрент-файлы, которые содержат только списки хеш-сумм

[Профиль] [ЛС]
Показать сообщения:    
Ответить на тему

Текущее время: Сегодня 20:34

Часовой пояс: GMT + 4



Вы не можете начинать темы
Вы не можете отвечать на сообщения
Вы не можете редактировать свои сообщения
Вы не можете удалять свои сообщения
Вы не можете голосовать в опросах
Вы не можете прикреплять файлы к сообщениям
Вы не можете скачивать файлы