Зловещие мертвецы: Чёрная книга / Evil Dead (Федерико Альварес / Federico Alvarez) [2013, США, ужасы, BDRemux 1080p] Dub + AVO (А. Карповский) + VO (А. Матвеев) + Original (Eng) + Subs (Rus, Eng)

Ответить на тему
 
Автор Сообщение

user ®

Стаж: 7 лет 7 месяцев

Сообщений: 20008

Пост Пост: #1 от 22-Июл-2013 12:20

[Цитировать]

Зловещие мертвецы: Чёрная книга / Evil Dead

-
-Страна: США
Студия: Ghost House Pictures
Жанр: ужасы
Год выпуска: 2013
Продолжительность: 01:31:18--Перевод 1: Профессиональный (дублированный) Blu-ray CEE
Перевод 2: Авторский (одноголосый закадровый) А. Карповский
Перевод 3: Одноголосый закадровый Алексей "Doctor_Joker" Матвеев по переводу MartinaG
Cубтитры: русские (Blu-ray CEE, MartinaG, notabenoid), английские (Full, SDH, SDH-COLORED, Commentary)
Оригинальная аудиодорожка: английский--Режиссер: Федерико Альварес / Federico Alvarez
В ролях: Джейн Леви, Шайло Фернандес, Лу Тэйлор Пуччи, Джессика Лукас, Элизабет Блэкмор, Феникс Коннолли, Джим МакЛарти, Сиан Дэвис, Стефен Баттерворф, Карл Виллетц и др.--Описание: Молодая женщина Миа, пытающаяся избавиться от наркозависимости, отправляется вместе с братом и группой друзей в удалённую хижину, где они открывают Книгу мёртвых, что приводит к опасности и ужасу.--imdb | kinopoisk | Сэмпл--Тип релиза: BDRemux 1080p [Evil Dead 2013 BluRay 1080p AVC DTS-HDMA5.1-CHDBits]
Контейнер: MKV
Видео: MPEG-4 AVC / 24893 kbps / 1920x1080 / 23,976 fps / 2,40:1 / High Profile 4.1
Аудио 1: AC3 / 5.1 / 48 kHz / 640 kbps / 16 bits |Dub|
Аудио 2: DTS-HD Master Audio / 5.1 / 48 kHz / 3819 kbps / 24 bits (DTS Core: 5.1 / 48 kHz / 1510 kbps / 24 bits) |AVO|
Аудио 3: DTS-HD Master Audio / 5.1 / 48 kHz / 3819 kbps / 24 bits (DTS Core: 5.1 / 48 kHz / 1510 kbps / 24 bits) |VO|
Аудио 4: DTS-HD Master Audio / 5.1 / 48 kHz / 3956 kbps / 24 bits (DTS Core: 5.1 / 48 kHz / 1510 kbps / 24 bits) |original|
Аудио 5: AC3 / 2.0 / 48 kHz / 192 kbps / 16 bits |Commentary with Director Fede Alvarez, Writer Rodo Sayagues, Actors Jane Levy, Lou Taylor Pucci and Jessica Lucas|
Формат субтитров: softsub [SRT]

MediaInfo

ОбщееУникальный идентификатор : 242408791424109525444143021607272270969 (0xB65E3C2A2E820A028FA495AE4D3B4C79)Полное имя : G:\HD\Зловещие мертвецы Чёрная книга.2013.Blu-Ray.Remux.(1080p).mkvФормат : MatroskaВерсия формата : Version 2Размер файла : 23,8 ГбайтПродолжительность : 1 ч. 31 м.Режим общего битрейта : ПеременныйОбщий поток : 37,3 Мбит/секДата кодирования : UTC 2013-07-17 18:39:47Программа кодирования : mkvmerge v5.8.0 ('No Sleep / Pillow') built on Sep 2 2012 15:37:04Библиотека кодирования : libebml v1.2.3 + libmatroska v1.3.0Attachment : Yes
ВидеоИдентификатор : 1Формат : AVCФормат/Информация : Advanced Video CodecПрофиль формата : High@L4.1Параметр CABAC формата : ДаПараметр ReFrames формата : 2 кадраПараметр GOP формата : M=1, N=10Режим смешивания : Container profile=Unknown@0.0Идентификатор кодека : V_MPEG4/ISO/AVCПродолжительность : 1 ч. 31 м.Вид битрейта : ПеременныйШирина : 1920 пикселейВысота : 1080 пикселейСоотношение сторон : 16:9Режим частоты кадров : ПостоянныйЧастота кадров : 23,976 кадра/секЦветовое пространство : YUVСубдискретизация насыщенности : 4:2:0Битовая глубина : 8 битТип развёртки : ПрогрессивнаяDefault : ДаForced : Нет
Аудио #1Идентификатор : 2Формат : AC-3Формат/Информация : Audio Coding 3Расширение режима : CM (complete main)Параметр Endianness формата : BigИдентификатор кодека : A_AC3Продолжительность : 1 ч. 31 м.Вид битрейта : ПостоянныйБитрейт : 640 Кбит/секКаналы : 6 каналовРасположение каналов : Front: L C R, Side: L R, LFEЧастота : 48,0 КГцБитовая глубина : 16 битМетод сжатия : С потерямиРазмер потока : 418 Мбайт (2%)Заголовок : DUB, Blu-ray CEEЯзык : RussianDefault : ДаForced : Нет
Аудио #2Идентификатор : 3Формат : DTSФормат/Информация : Digital Theater SystemsПрофиль формата : MA / CoreРежим : 16Параметр Endianness формата : BigИдентификатор кодека : A_DTSПродолжительность : 1 ч. 31 м.Вид битрейта : ПеременныйБитрейт : Неизвестно / 1509 Кбит/секКаналы : 6 каналовРасположение каналов : Front: L C R, Side: L R, LFEЧастота : 48,0 КГцБитовая глубина : 24 битМетод сжатия : Без потерь / LossyЗаголовок : Алексей "Doctor_Joker" МатвеевЯзык : RussianDefault : НетForced : Нет
Аудио #3Идентификатор : 4Формат : DTSФормат/Информация : Digital Theater SystemsПрофиль формата : MA / CoreРежим : 16Параметр Endianness формата : BigИдентификатор кодека : A_DTSПродолжительность : 1 ч. 31 м.Вид битрейта : ПеременныйБитрейт : Неизвестно / 1509 Кбит/секКаналы : 6 каналовРасположение каналов : Front: L C R, Side: L R, LFEЧастота : 48,0 КГцБитовая глубина : 24 битМетод сжатия : Без потерь / LossyЗаголовок : А. КарповскийЯзык : RussianDefault : НетForced : Нет
Аудио #4Идентификатор : 5Формат : DTSФормат/Информация : Digital Theater SystemsПрофиль формата : MA / CoreРежим : 16Параметр Endianness формата : BigИдентификатор кодека : A_DTSПродолжительность : 1 ч. 31 м.Вид битрейта : ПеременныйБитрейт : Неизвестно / 1509 Кбит/секКаналы : 6 каналовРасположение каналов : Front: L C R, Side: L R, LFEЧастота : 48,0 КГцБитовая глубина : 24 битМетод сжатия : Без потерь / LossyЯзык : EnglishDefault : НетForced : Нет
Аудио #5Идентификатор : 6Формат : AC-3Формат/Информация : Audio Coding 3Профиль формата : Dolby DigitalРасширение режима : CM (complete main)Параметр Endianness формата : BigИдентификатор кодека : A_AC3Продолжительность : 1 ч. 31 м.Вид битрейта : ПостоянныйБитрейт : 192 Кбит/секКаналы : 2 каналаРасположение каналов : Front: L RЧастота : 48,0 КГцБитовая глубина : 16 битМетод сжатия : С потерямиРазмер потока : 125 Мбайт (1%)Заголовок : CommentaryЯзык : EnglishDefault : НетForced : Нет
Текст #1Идентификатор : 7Формат : UTF-8Идентификатор кодека : S_TEXT/UTF8Идентификатор кодека/Информация : UTF-8 Plain TextЗаголовок : Blu-ray CEEЯзык : RussianDefault : НетForced : Нет
Текст #2Идентификатор : 8Формат : UTF-8Идентификатор кодека : S_TEXT/UTF8Идентификатор кодека/Информация : UTF-8 Plain TextЗаголовок : MartinaGЯзык : RussianDefault : НетForced : Нет
Текст #3Идентификатор : 9Формат : UTF-8Идентификатор кодека : S_TEXT/UTF8Идентификатор кодека/Информация : UTF-8 Plain TextЗаголовок : НотабеноидЯзык : RussianDefault : НетForced : Нет
Текст #4Идентификатор : 10Формат : UTF-8Идентификатор кодека : S_TEXT/UTF8Идентификатор кодека/Информация : UTF-8 Plain TextЯзык : EnglishDefault : НетForced : Нет
Текст #5Идентификатор : 11Формат : UTF-8Идентификатор кодека : S_TEXT/UTF8Идентификатор кодека/Информация : UTF-8 Plain TextЗаголовок : SDHЯзык : EnglishDefault : НетForced : Нет
Текст #6Идентификатор : 12Формат : UTF-8Идентификатор кодека : S_TEXT/UTF8Идентификатор кодека/Информация : UTF-8 Plain TextЗаголовок : SDH-COLOREDЯзык : EnglishDefault : НетForced : Нет
Текст #7Идентификатор : 13Формат : UTF-8Идентификатор кодека : S_TEXT/UTF8Идентификатор кодека/Информация : UTF-8 Plain TextЗаголовок : CommentaryЯзык : EnglishDefault : НетForced : Нет
Меню00:00:00.000 : :Chapter 0100:05:10.309 : :Chapter 0200:09:46.085 : :Chapter 0300:14:24.028 : :Chapter 0400:18:34.028 : :Chapter 0500:23:14.308 : :Chapter 0600:30:38.044 : :Chapter 0700:35:34.797 : :Chapter 0800:40:36.474 : :Chapter 0900:49:43.480 : :Chapter 1000:55:24.237 : :Chapter 1101:01:35.189 : :Chapter 1201:08:35.778 : :Chapter 1301:14:05.983 : :Chapter 1401:17:24.972 : :Chapter 1501:20:36.247 : :Chapter 16

Скриншоты


Скачать

Скачать торрент!

Как скачивать? · Что такое торрент? · Рейтинг и ограничения

Сайт не распространяет и не хранит электронные версии произведений, а лишь предоставляет доступ к создаваемому пользователями каталогу ссылок на торрент-файлы, которые содержат только списки хеш-сумм

[Профиль] [ЛС]
Показать сообщения:    
Ответить на тему

Текущее время: Сегодня 15:55

Часовой пояс: GMT + 4



Вы не можете начинать темы
Вы не можете отвечать на сообщения
Вы не можете редактировать свои сообщения
Вы не можете удалять свои сообщения
Вы не можете голосовать в опросах
Вы не можете прикреплять файлы к сообщениям
Вы не можете скачивать файлы