Остров смерти / Чёрная скала / Black Rock (Кэтрин Аселтон / Katie Aselton) [2012, США, ужасы, триллер, BDRemux 1080p] DVO ("Пираты") + Original Eng + Sub Eng

Ответить на тему
 
Автор Сообщение

user ®

Стаж: 7 лет 7 месяцев

Сообщений: 20008

Пост Пост: #1 от 22-Июл-2013 12:20

[Цитировать]

Остров смерти / Чёрная скала / Black Rock «Not every island is a paradise.» Год выпуска: 2012
Страна: США
Жанр: ужасы, триллер
Продолжительность: 01:19:52.162
Перевод: Любительский (двухголосый закадровый) "Пираты"
Оригинальная аудиодорожка: Английская
Субтитры: Английские (Full)
Студия: Submarine Entertainment
Режиссёр: Кэтрин Аселтон / Katie Aselton
В ролях: Кэтрин Аселтон, Лэйк Белл, Кейт Босворт, Уилл Бовье, Джей Полсон, Анслем Ричардсон, Карл К. Аселтон III, Др. Карл Аселтон, Генри Барронс, Джон Дэвис и др.
Описание: Три подруги детства решают устроить пикник на удаленном острове. Однако незапланированная встреча с агрессивно настроенными ветеранами иракской войны превращает отдых в сущий кошмар.
  • Кинопоиск
  • IMDB
  • Blu-ray.com
  • Сэмпл
    Качество: BDRemux 1080p (Black Rock 2012 1080p Blu-ray AVC DTS-HD MA 5.1-HDWinG)
    Контейнер: MKV
    Видео: MPEG-4 AVC Video / 23995 kbps / 1920x1080p / 23.976 fps / 16:9 / High Profile 4.1
    Аудио 1: Русский / Dolby Digital Audio / 2.0 / 48 kHz / 192 kbps / 16-bit / DVO "Пираты"
    Аудио 2: English / DTS-HD Master Audio / 5.1 / 48 kHz / 3936 kbps / 24-bit (DTS Core: 5.1 / 48 kHz / 1509 kbps / 24-bit) / Оригинал
    Аудио 3: English / Dolby Digital Audio / 2.0 / 48 kHz / 256 kbps / 16-bit / Комментарии
    Навигация по главам: да

Скриншот с названием фильма

MediaInfo

C:\***\Остров смерти (Чёрная скала) (Black Rock) 2012, США, ужасы, триллер, BDRemux 1080p GORESEWAGE.mkv
General
Unique ID : 199076396845541978858291371663750463443 (0x95C4B829FAB90A5880F76B018CDDFFD3)
Complete name : C:\***\Остров смерти (Чёрная скала) (Black Rock) 2012, США, ужасы, триллер, BDRemux 1080p GORESEWAGE.mkv
Format : Matroska
Format version : Version 4 / Version 2
File size : 15.8 GiB
Duration : 1h 19mn
Overall bit rate mode : Variable
Overall bit rate : 28.3 Mbps
Movie name : GORESEWAGE
Encoded date : UTC 2013-07-19 17:44:19
Writing application : mkvmerge v6.1.0 ('Old Devil') built on Mar 31 2013 15:21:18
Writing library : libebml v1.3.0 + libmatroska v1.4.0
Video #1
ID : 1
Format : AVC
Format/Info : Advanced Video Codec
Format profile : High@L4.1
Format settings, CABAC : Yes
Format settings, ReFrames : 4 frames
Format settings, GOP : M=3, N=12
Codec ID : V_MPEG4/ISO/AVC
Duration : 1h 19mn
Bit rate mode : Variable
Bit rate : 25.7 Mbps
Maximum bit rate : 39.0 Mbps
Width : 1 920 pixels
Height : 1 080 pixels
Display aspect ratio : 16:9
Frame rate mode : Constant
Frame rate : 23.976 fps
Color space : YUV
Chroma subsampling : 4:2:0
Bit depth : 8 bits
Scan type : Progressive
Bits/(Pixel*Frame) : 0.517
Stream size : 14.3 GiB (91%)
Title : GORESEWAGE
Language : English
Default : Yes
Forced : No
Audio #2
ID : 2
Format : AC-3
Format/Info : Audio Coding 3
Mode extension : CM (complete main)
Format settings, Endianness : Big
Codec ID : A_AC3
Duration : 1h 19mn
Bit rate mode : Constant
Bit rate : 192 Kbps
Channel(s) : 2 channels
Channel positions : Front: L R
Sampling rate : 48.0 KHz
Bit depth : 16 bits
Compression mode : Lossy
Stream size : 110 MiB (1%)
Title : Любительский (двухголосый закадровый) "Пираты"
Language : Russian
Default : Yes
Forced : No
Audio #3
ID : 3
Format : DTS
Format/Info : Digital Theater Systems
Format profile : MA / Core
Codec ID : A_DTS
Duration : 1h 19mn
Bit rate mode : Variable
Bit rate : 1 561 Kbps / 1 510 Kbps
Channel(s) : 6 channels
Channel positions : Front: L C R, Side: L R, LFE
Sampling rate : 48.0 KHz
Bit depth : 24 bits
Compression mode : Lossless / Lossy
Title : Оригинал
Language : English
Default : No
Forced : No
Audio #4
ID : 4
Format : AC-3
Format/Info : Audio Coding 3
Mode extension : CM (complete main)
Format settings, Endianness : Big
Codec ID : A_AC3
Duration : 1h 19mn
Bit rate mode : Constant
Bit rate : 256 Kbps
Channel(s) : 2 channels
Channel positions : Front: L R
Sampling rate : 48.0 KHz
Bit depth : 16 bits
Compression mode : Lossy
Stream size : 146 MiB (1%)
Title : Комментарии
Language : English
Default : No
Forced : No
Text #5
ID : 5
Format : UTF-8
Codec ID : S_TEXT/UTF8
Codec ID/Info : UTF-8 Plain Text
Title : Full
Language : English
Default : No
Forced : No
Menu
00:00:00.000 : en:00:00:00.000
00:02:58.387 : en:00:02:58.387
00:06:23.300 : en:00:06:23.300
00:09:28.443 : en:00:09:28.443
00:12:44.764 : en:00:12:44.764
00:17:13.199 : en:00:17:13.199
00:21:48.724 : en:00:21:48.724
00:24:17.498 : en:00:24:17.498
00:26:23.582 : en:00:26:23.582
00:29:22.052 : en:00:29:22.052
00:31:48.949 : en:00:31:48.949
00:33:49.819 : en:00:33:49.819
00:35:49.356 : en:00:35:49.356
00:38:07.452 : en:00:38:07.452
00:40:09.115 : en:00:40:09.115
00:42:41.100 : en:00:42:41.100
00:47:16.292 : en:00:47:16.292
00:50:02.833 : en:00:50:02.833
00:53:22.574 : en:00:53:22.574
00:59:18.221 : en:00:59:18.221
01:03:42.986 : en:01:03:42.986
01:06:21.311 : en:01:06:21.311
01:08:49.125 : en:01:08:49.125
01:15:46.542 : en:01:15:46.542

Полноразмерный постер

Скачать

Скачать торрент!

Как скачивать? · Что такое торрент? · Рейтинг и ограничения

Сайт не распространяет и не хранит электронные версии произведений, а лишь предоставляет доступ к создаваемому пользователями каталогу ссылок на торрент-файлы, которые содержат только списки хеш-сумм

[Профиль] [ЛС]
Показать сообщения:    
Ответить на тему

Текущее время: Сегодня 10:04

Часовой пояс: GMT + 4



Вы не можете начинать темы
Вы не можете отвечать на сообщения
Вы не можете редактировать свои сообщения
Вы не можете удалять свои сообщения
Вы не можете голосовать в опросах
Вы не можете прикреплять файлы к сообщениям
Вы не можете скачивать файлы