Обезьяна-убийца / Обезьяний оскал: эксперимент со страхом / Monkey Shines (Джордж А. Ромеро / George A. Romero) [1988, США, ужасы, фантастика, триллер, драма, HDTV 1080i] DVO (НТВ+) + Sub Eng + Original Eng

Ответить на тему
 
Автор Сообщение

user ®

Стаж: 7 лет 7 месяцев

Сообщений: 20008

Пост Пост: #1 от 22-Июл-2013 12:20

[Цитировать]

Обезьяна-убийца / Обезьяний оскал: эксперимент со страхом / Monkey Shines
Страна: США
Студия: Orion Pictures Corporation
Жанр: ужасы, фантастика, триллер, драма
Год выпуска: 1988
Продолжительность: 01:48:30
Перевод: Профессиональный (двухголосый закадровый) НТВ+
Cубтитры: английские
Оригинальная аудиодорожка: английский
Режиссер: Джордж А. Ромеро / George A. Romero
В ролях: Джейсон Бег /Jason Beghe/, Джон Пэнкоу /John Pankow/, Кэйт МакНил /Kate McNeil/, Джойс Ван Паттен /Joyce Van Patten/, Кристина Форрест /Christine Forrest/, Стивен Рут /Stephen Root/, Стэнли Туччи /Stanley Tucci/, Джэнин Тернер /Janine Turner/
Описание: Аллан — молодой, подающий надежды студент. В результате несчастного случая он оказывается полностью парализованным. Чтобы помочь ему выйти из депрессии и снова обрести волю к жизни, его друг Джефри — гениальный ученый, работающий над повышением интеллекта у обезьян, решает подарить ему самку капуцина — плод своего эксперимента. Чтобы обучить обезьяну уходу за больным, Джефри обращается к дрессировщице Мелани. Аллан и Элла, так он называет нового друга, прекрасно находят общий язык, и через некоторое время Элла начинает даже предвосхищать многие просьбы Аллана. Все идет хорошо, симпатия, возникшая между Мелани и Алланом, начинает развиваться в более сильное чувство. Но однажды открываются темные, никому не ведомые способности обезьяны...

Тип релиза: HDTV 1080i
Контейнер: MKV
Видео: AVC 1920x1080 (16:9) 25.0fps Bit rate 5504Kbps
Аудио 1: AC3 48.0KHz 2ch 192 Kbps rus
Аудио 2: AC3 48.0KHz 2ch 192 Kbps eng

MediaInfo

General
Complete name : E:\torrent\Monkey Shines_HDTV 1080i.mkv
Format : Matroska
File size : 4.55 GiB
Duration : 1h 48mn
Overall bit rate : 6 008 Kbps
Encoded date : UTC 2013-07-19 12:11:24
Writing application : mkvmerge v5.7.0 ('The Whirlwind') built on Jul 8 2012 20:08:51
Writing library : libebml v1.2.3 + libmatroska v1.3.0
Video
ID : 1
Format : AVC
Format/Info : Advanced Video Codec
Format profile : High@L4.0
Format settings, CABAC : Yes
Format settings, ReFrames : 3 frames
Muxing mode : Container profile=Unknown@4.0
Codec ID : V_MPEG4/ISO/AVC
Duration : 1h 48mn
Bit rate : 5 504 Kbps
Width : 1 920 pixels
Height : 1 080 pixels
Display aspect ratio : 16:9
Frame rate : 50.000 fps
Original frame rate : 25.000 fps
Standard : Component
Color space : YUV
Chroma subsampling : 4:2:0
Bit depth : 8 bits
Scan type : Interlaced
Scan order : Top Field First
Bits/(Pixel*Frame) : 0.053
Stream size : 4.17 GiB (92%)
Title : Monkey Shines_HDTV 1080i
Color primaries : BT.709-5, BT.1361, IEC 61966-2-4, SMPTE RP177
Transfer characteristics : BT.709-5, BT.1361
Matrix coefficients : BT.709-5, BT.1361, IEC 61966-2-4 709, SMPTE RP177
Audio #1
ID : 2
Format : AC-3
Format/Info : Audio Coding 3
Mode extension : CM (complete main)
Codec ID : A_AC3
Duration : 1h 48mn
Bit rate mode : Constant
Bit rate : 192 Kbps
Channel(s) : 2 channels
Channel positions : Front: L R
Sampling rate : 48.0 KHz
Bit depth : 16 bits
Stream size : 149 MiB (3%)
Title : Monkey Shines_HDTV 1080i_AC3_DVO_rus
Language : Russian
Audio #2
ID : 3
Format : AC-3
Format/Info : Audio Coding 3
Mode extension : CM (complete main)
Codec ID : A_AC3
Duration : 1h 48mn
Bit rate mode : Constant
Bit rate : 192 Kbps
Channel(s) : 2 channels
Channel positions : Front: L R
Sampling rate : 48.0 KHz
Bit depth : 16 bits
Stream size : 149 MiB (3%)
Title : Monkey Shines_HDTV 1080i_AC3_original eng
Text
ID : 4
Format : UTF-8
Codec ID : S_TEXT/UTF8
Codec ID/Info : UTF-8 Plain Text
Title : Monkey Shines_HDTV 1080i_sub_eng

Скриншот с названием фильма

Скриншоты


Скачать

Скачать торрент!

Как скачивать? · Что такое торрент? · Рейтинг и ограничения

Сайт не распространяет и не хранит электронные версии произведений, а лишь предоставляет доступ к создаваемому пользователями каталогу ссылок на торрент-файлы, которые содержат только списки хеш-сумм

[Профиль] [ЛС]
Показать сообщения:    
Ответить на тему

Текущее время: Сегодня 18:17

Часовой пояс: GMT + 4



Вы не можете начинать темы
Вы не можете отвечать на сообщения
Вы не можете редактировать свои сообщения
Вы не можете удалять свои сообщения
Вы не можете голосовать в опросах
Вы не можете прикреплять файлы к сообщениям
Вы не можете скачивать файлы