Неудержимый / Bullet to the Head (Уолтер Хилл / Walter Hill) [2012, США, боевик, триллер, криминал, BDRip 720p] [US Transfer] Dub + AVO (Володарский) + AVO (Сербин) + AVO (Гаврилов) + VO (Киреев) + Original (Eng) + Subs (Rus, Eng)

Ответить на тему
 
Автор Сообщение

user ®

Стаж: 7 лет 7 месяцев

Сообщений: 20008

Пост Пост: #1 от 22-Июл-2013 12:20

[Цитировать]

Неудержимый / Bullet to the Head

-
-Страна: США
Студия: AfterDark Films, Automatik Entertainment
Жанр: боевик, триллер, криминал
Год выпуска: 2012
Продолжительность: 01:31:33--Перевод 1: Профессиональный (дублированный) Blu-ray
Перевод 2: Авторский (одноголосый закадровый) Л. Володарский
Перевод 3: Авторский (одноголосый закадровый) Ю. Сербин
Перевод 4: Авторский (одноголосый закадровый) А. Гаврилов
Перевод 5: Одноголосый закадровый А. Киреев по переводу Гоблина
Cубтитры: русские (по дубляжу с правкой, по Гоблину), английские (full, SDH, SDH-COLORED)
Оригинальная аудиодорожка: английский--Режиссер: Уолтер Хилл / Walter Hill
В ролях: Сильвестр Сталлоне, Санг Кенг, Сара Шахи, Адевале Акинойе-Агбаже, Джейсон Момоа, Кристиан Слэйтер, Джон Седа, Холт МакКэллани, Брайан Ван Холт, Вероника Розати--Описание: Киллер из Нового Орлеана объединяется с молодым полицейским из Нью-Йорка, расследуя дело, которое выводит их с мрачных задворок Нового Орлеана в светлые коридоры правительственных зданий в Вашингтоне. Необычный дуэт формируется в результате двух жестоких убийств. Герои убирают всех, кто стоит у них на пути, и готовы пожертвовать всем, чтобы отомстить.--imdb | kinopoisk | Сэмпл--Тип релиза: BDRip 720p [Bullet to the Head 2012 720p BluRay DTS x264-DON]
Контейнер: MKV
Видео: MPEG-4 AVC / 9435 Кбит/сек / 1280x692 / 23,976 fps / 1,85:1 / High Profile 4.1
Аудио 1: DTS / 5.1 / 48 kHz / 1510 kbps / 16 bits |Dub|
Аудио 2: DTS / 5.1 / 48 kHz / 1510 kbps / 24 bits |Л. Володарский|
Аудио 3: DTS / 5.1 / 48 kHz / 1510 kbps / 24 bits |Ю. Сербин|
Аудио 4: DTS / 5.1 / 48 kHz / 1510 kbps / 24 bits |А. Гаврилов|
Аудио 5: DTS / 5.1 / 48 kHz / 1510 kbps / 24 bits |А. Киреев|
Аудио 6: DTS / 5.1 / 48 kHz / 1510 kbps / 24 bits |original|
Формат субтитров: softsub [SRT]

MediaInfo

Общее
Уникальный идентификатор : 238412380477406546469604204491555503022 (0xB35C8DE47806A4CAABBB66F7C4507BAE)
Полное имя : G:\HD\Неудержимый.2012.BDRip.(720p)\Неудержимый.2012.BDRip.(720p).mkv
Формат : Matroska
Версия формата : Version 2
Размер файла : 7,96 Гбайт
Продолжительность : 1 ч. 31 м.
Общий поток : 12,5 Мбит/сек
Дата кодирования : UTC 2013-06-30 09:51:24
Программа кодирования : mkvmerge v5.8.0 ('No Sleep / Pillow') built on Sep 2 2012 15:37:04
Библиотека кодирования : libebml v1.2.3 + libmatroska v1.3.0
Attachment : Yes
Видео
Идентификатор : 1
Формат : AVC
Формат/Информация : Advanced Video Codec
Профиль формата : High@L4.1
Параметр CABAC формата : Да
Параметр ReFrames формата : 9 кадров
Идентификатор кодека : V_MPEG4/ISO/AVC
Продолжительность : 1 ч. 31 м.
Битрейт : 9435 Кбит/сек
Ширина : 1280 пикселей
Высота : 692 пикселя
Соотношение сторон : 1,85:1
Режим частоты кадров : Постоянный
Частота кадров : 23,976 кадра/сек
Цветовое пространство : YUV
Субдискретизация насыщенности : 4:2:0
Битовая глубина : 8 бит
Тип развёртки : Прогрессивная
Бит/(Пиксели*Кадры) : 0.444
Размер потока : 5,87 Гбайт (74%)
Заголовок : Bullet to the Head 2012 720p BluRay DTS x264-DON
Библиотека кодирования : x264 core 133 r2334 a3ac64b
Настройки программы : cabac=1 / ref=9 / deblock=1:-3:-3 / analyse=0x3:0x133 / me=tesa / subme=10 / psy=1 / psy_rd=1.05:0.00 / mixed_ref=1 / me_range=24 / chroma_me=1 / trellis=2 / 8x8dct=1 / cqm=0 / deadzone=21,11 / fast_pskip=0 / chroma_qp_offset=-2 / threads=3 / lookahead_threads=1 / sliced_threads=0 / nr=0 / decimate=0 / interlaced=0 / bluray_compat=0 / constrained_intra=0 / bframes=8 / b_pyramid=2 / b_adapt=2 / b_bias=0 / direct=3 / weightb=1 / open_gop=0 / weightp=2 / keyint=250 / keyint_min=23 / scenecut=40 / intra_refresh=0 / rc_lookahead=60 / rc=2pass / mbtree=0 / bitrate=9435 / ratetol=1.0 / qcomp=0.75 / qpmin=0 / qpmax=69 / qpstep=4 / cplxblur=20.0 / qblur=0.5 / vbv_maxrate=50000 / vbv_bufsize=62500 / nal_hrd=none / ip_ratio=1.20 / pb_ratio=1.10 / aq=1:0.60
Язык : English
Default : Да
Forced : Нет
Аудио #1
Идентификатор : 2
Формат : DTS
Формат/Информация : Digital Theater Systems
Режим : 16
Параметр Endianness формата : Big
Идентификатор кодека : A_DTS
Продолжительность : 1 ч. 31 м.
Вид битрейта : Постоянный
Битрейт : 1509 Кбит/сек
Каналы : 6 каналов
Расположение каналов : Front: L C R, Side: L R, LFE
Частота : 48,0 КГц
Битовая глубина : 16 бит
Метод сжатия : С потерями
Размер потока : 988 Мбайт (12%)
Заголовок : Дубляж, Blu-ray
Язык : Russian
Default : Да
Forced : Нет
Аудио #2
Идентификатор : 3
Формат : DTS
Формат/Информация : Digital Theater Systems
Режим : 16
Параметр Endianness формата : Big
Идентификатор кодека : A_DTS
Продолжительность : 1 ч. 31 м.
Вид битрейта : Постоянный
Битрейт : 1509 Кбит/сек
Каналы : 6 каналов
Расположение каналов : Front: L C R, Side: L R, LFE
Частота : 48,0 КГц
Битовая глубина : 24 бит
Метод сжатия : С потерями
Размер потока : 988 Мбайт (12%)
Язык : English
Default : Нет
Forced : Нет
Текст #1
Идентификатор : 4
Формат : UTF-8
Идентификатор кодека : S_TEXT/UTF8
Идентификатор кодека/Информация : UTF-8 Plain Text
Заголовок : по дубляжу с правкой
Язык : Russian
Default : Нет
Forced : Нет
Текст #2
Идентификатор : 5
Формат : UTF-8
Идентификатор кодека : S_TEXT/UTF8
Идентификатор кодека/Информация : UTF-8 Plain Text
Заголовок : по переводу Гоблина
Язык : Russian
Default : Нет
Forced : Нет
Текст #3
Идентификатор : 6
Формат : UTF-8
Идентификатор кодека : S_TEXT/UTF8
Идентификатор кодека/Информация : UTF-8 Plain Text
Заголовок : full
Язык : English
Default : Нет
Forced : Нет
Текст #4
Идентификатор : 7
Формат : UTF-8
Идентификатор кодека : S_TEXT/UTF8
Идентификатор кодека/Информация : UTF-8 Plain Text
Заголовок : SDH
Язык : English
Default : Нет
Forced : Нет
Текст #5
Идентификатор : 8
Формат : UTF-8
Идентификатор кодека : S_TEXT/UTF8
Идентификатор кодека/Информация : UTF-8 Plain Text
Заголовок : SDH-COLORED
Язык : English
Default : Нет
Forced : Нет
Меню
00:00:00.000 : :Chapter 01
00:06:32.433 : :Chapter 02
00:07:43.379 : :Chapter 03
00:11:30.439 : :Chapter 04
00:16:25.109 : :Chapter 05
00:21:54.354 : :Chapter 06
00:27:53.546 : :Chapter 07
00:30:30.078 : :Chapter 08
00:34:59.931 : :Chapter 09
00:40:39.311 : :Chapter 10
00:47:19.294 : :Chapter 11
00:56:18.375 : :Chapter 12
01:00:55.109 : :Chapter 13
01:03:45.446 : :Chapter 14
01:07:01.183 : :Chapter 15
01:09:18.571 : :Chapter 16
01:13:50.968 : :Chapter 17
01:17:32.356 : :Chapter 18
01:23:24.332 : :Chapter 19
01:26:23.011 : :Chapter 20

Скриншоты


Дополнительно

За исходник взят американский трансфер
Спасибо avproh и HDCLUB за дубляж.
В обоих вариантах русских сабов сожержится ненормативная лексика
Дорожки №2,3,4,5 получены наложением чистого голоса на центр декодированного DTS-HD MA.
Перевод у Л. Володарского осуществлён из копилки сайта e180. Спонсоры: User, Al12, Nick, Jorn2, Эдуард, Nadoelo
За дорогу DTS-HD MA thx HDCLUB & nadoeloru.
Перевод и озвучание Ю. Сербин осуществлены в рамках сервиса "Озвучивание". Спонсоры: Platov, denismgn1987, xerman13, GKillah, Luka69, Loki1982, tide, shtift, а так же пользователи ресурсов e180 и DVD100, за что им огромная благодарность.
Работа со звуком — dsk71.
За перевод А. Гаврилова большое спасибо пользователям форума hdtracker: shitman82, Schmulke, Xerman13, foxlight, SavineX, feldeger, kinobbk, Jiraya87, Letyoha3, Brown15, Wolf_Larsen, therox, Pain_70, Hattori Hanzo, rydanes, _MyxAmoP_, Loki, Skoped, hulahup, audiolubitel, sawyer4, GaryH, nimph, Vimann, carter64, vadamk, AndreyTula, John Ryder, milocerd0v, olegsoleg, LAVR, chef&chef, dunhill200, lexal, Chistobaev, karantin66, DB73, эвоки, GansAn, dark1982, Rolly Tyler, Guyver, Skibichok, ZeRoNe, maximus1099, TvarYuri, Role, shtift, apollion, MeGUI, Shumway, Диммон, Consul
Работа со звуком — KpucTo161.
Озвучка А. Киреева доступна, благодаря: kidman644, qwertyuiopaspas, MisterGreen61s
Работа со звуком — perevodman.
Торент-файл перезалит. Добавлен перевод Л. Володарского
Скачать

Скачать торрент!

Как скачивать? · Что такое торрент? · Рейтинг и ограничения

Сайт не распространяет и не хранит электронные версии произведений, а лишь предоставляет доступ к создаваемому пользователями каталогу ссылок на торрент-файлы, которые содержат только списки хеш-сумм

[Профиль] [ЛС]
Показать сообщения:    
Ответить на тему

Текущее время: Сегодня 10:04

Часовой пояс: GMT + 4



Вы не можете начинать темы
Вы не можете отвечать на сообщения
Вы не можете редактировать свои сообщения
Вы не можете удалять свои сообщения
Вы не можете голосовать в опросах
Вы не можете прикреплять файлы к сообщениям
Вы не можете скачивать файлы