Падение Олимпа / Olympus Has Fallen (Антуан Фукуа / Antoine Fuqua) [2013, США, боевик, триллер, BDRip 720p] Dub + Sub Rus,Eng + Original Eng

Ответить на тему
 
Автор Сообщение

user ®

Стаж: 7 лет 7 месяцев

Сообщений: 20008

Пост Пост: #1 от 22-Июл-2013 12:20

[Цитировать]

Падение Олимпа / Olympus Has Fallen Страна: США
Студия: Millennium Films, Nu Image Films, West Coast Film Partners
Жанр: боевик, триллер
Год выпуска: 2013
Продолжительность: 01:59:09
Перевод: Профессиональный (дублированный)Blu-ray
Cубтитры: русские(voronine (включая реплики на корейском),английские
Оригинальная аудиодорожка: английский
Режиссер: Антуан Фукуа / Antoine Fuqua
В ролях: Джерард Батлер, Аарон Экхарт, Морган Фриман, Эшли Джадд, Мелисса Лео, Финли Якобсен, Дилан МакДермотт, Рик Юн, Анджела Бассетт, Рада Митчелл
Описание: Когда на Белый Дом нападают террористы, а президента берут в заложники, дискредитированный бывший охранник главы государства Майк Бэннинг оказывается внутри захваченного здания. И теперь он единственный, кто сможет спасти президента…

Тип релиза: BDRip 720p[HiDt]
Контейнер: MKV
Исходник:Olympus Has Fallen 2013 1080p HKG Blu-ray AVC DTS-HD MA 5.1-HDWing
Видео: AVC, 1280x538, 6357 Kbps, 24.000 fps
Аудио 1: Russian: 48 kHz, AC3, 3/2 (L,C,R,l,r) + LFE ch, ~640.00 kbps avg|Blu-ray|
Аудио 2: English: 48 kHz, AC3, 3/2 (L,C,R,l,r) + LFE ch, ~640.00 kbps avg|Original|
Чаптеры:есть

Доп.информация

За блюр спасибо

MediaInfo

General
Unique ID : 232724328165337552954034757252794373563 (0xAF151342EF73BF92948FE6ABD6D555BB)
Complete name : D:\Olympus.Has.Fallen.2013.720p.BluRay.DTS.x264-Talian-.mkv
Format : Matroska
Format version : Version 2
File size : 6.36 GiB
Duration : 1h 59mn
Overall bit rate : 7 640 Kbps
Movie name : -Talian-
Encoded date : UTC 2013-07-20 14:10:39
Writing application : mkvmerge v5.7.0 ('The Whirlwind') built on Jul 8 2012 20:08:51
Writing library : libebml v1.2.3 + libmatroska v1.3.0
Video
ID : 1
Format : AVC
Format/Info : Advanced Video Codec
Format profile : High@L4.1
Format settings, CABAC : Yes
Format settings, ReFrames : 11 frames
Codec ID : V_MPEG4/ISO/AVC
Duration : 1h 59mn
Bit rate : 6 357 Kbps
Width : 1 280 pixels
Height : 538 pixels
Display aspect ratio : 2.40:1
Frame rate : 24.000 fps
Color space : YUV
Chroma subsampling : 4:2:0
Bit depth : 8 bits
Scan type : Progressive
Bits/(Pixel*Frame) : 0.385
Stream size : 5.17 GiB (81%)
Title : HiDt
Writing library : x264 core 133 r2334 a3ac64b
Encoding settings : cabac=1 / ref=11 / deblock=1:-3:-3 / analyse=0x3:0x113 / me=tesa / subme=11 / psy=1 / psy_rd=0.95:0.00 / mixed_ref=1 / me_range=48 / chroma_me=1 / trellis=2 / 8x8dct=1 / cqm=0 / deadzone=21,11 / fast_pskip=0 / chroma_qp_offset=-2 / threads=12 / lookahead_threads=2 / sliced_threads=0 / nr=0 / decimate=1 / interlaced=0 / bluray_compat=0 / constrained_intra=0 / bframes=7 / b_pyramid=2 / b_adapt=2 / b_bias=0 / direct=3 / weightb=1 / open_gop=0 / weightp=2 / keyint=240 / keyint_min=24 / scenecut=40 / intra_refresh=0 / rc_lookahead=80 / rc=2pass / mbtree=1 / bitrate=6357 / ratetol=1.0 / qcomp=0.71 / qpmin=0 / qpmax=69 / qpstep=4 / cplxblur=20.0 / qblur=0.5 / vbv_maxrate=62500 / vbv_bufsize=78125 / nal_hrd=none / ip_ratio=1.40 / aq=2:0.80 / zones=158740,171575,b=0.1
Language : English
Default : No
Forced : No
Audio #1
ID : 2
Format : AC-3
Format/Info : Audio Coding 3
Mode extension : CM (complete main)
Format settings, Endianness : Big
Codec ID : A_AC3
Duration : 1h 59mn
Bit rate mode : Constant
Bit rate : 640 Kbps
Channel(s) : 6 channels
Channel positions : Front: L C R, Side: L R, LFE
Sampling rate : 48.0 KHz
Bit depth : 16 bits
Compression mode : Lossy
Stream size : 545 MiB (8%)
Title : DUB-Blu-ray
Language : Russian
Default : Yes
Forced : No
Audio #2
ID : 3
Format : AC-3
Format/Info : Audio Coding 3
Mode extension : CM (complete main)
Format settings, Endianness : Big
Codec ID : A_AC3
Duration : 1h 59mn
Bit rate mode : Constant
Bit rate : 640 Kbps
Channel(s) : 6 channels
Channel positions : Front: L C R, Side: L R, LFE
Sampling rate : 48.0 KHz
Bit depth : 16 bits
Compression mode : Lossy
Stream size : 545 MiB (8%)
Title : Original
Language : English
Default : No
Forced : No
Text #1
ID : 4
Format : UTF-8
Codec ID : S_TEXT/UTF8
Codec ID/Info : UTF-8 Plain Text
Title : Sub-voronine
Language : Russian
Default : No
Forced : No
Text #2
ID : 5
Format : UTF-8
Codec ID : S_TEXT/UTF8
Codec ID/Info : UTF-8 Plain Text
Title : Sub
Language : English
Default : No
Forced : No
Text #3
ID : 6
Format : UTF-8
Codec ID : S_TEXT/UTF8
Codec ID/Info : UTF-8 Plain Text
Title : Sub
Language : Bulgarian
Default : No
Forced : No
Text #4
ID : 7
Format : UTF-8
Codec ID : S_TEXT/UTF8
Codec ID/Info : UTF-8 Plain Text
Title : Sub
Language : Chinese
Default : No
Forced : No
Text #5
ID : 8
Format : UTF-8
Codec ID : S_TEXT/UTF8
Codec ID/Info : UTF-8 Plain Text
Title : Sub
Language : Spanish
Default : No
Forced : No
Menu
00:00:00.000 : en:Chapter 01
00:09:19.541 : en:Chapter 02
00:17:49.750 : en:Chapter 03
00:27:52.416 : en:Chapter 04
00:38:11.708 : en:Chapter 05
00:46:51.833 : en:Chapter 06
00:57:37.000 : en:Chapter 07
01:07:31.708 : en:Chapter 08
01:19:48.875 : en:Chapter 09
01:28:46.208 : en:Chapter 10
01:38:14.125 : en:Chapter 11
01:50:14.625 : en:Chapter 12

Скриншоты

Source vs Encode



Скачать

Скачать торрент!

Как скачивать? · Что такое торрент? · Рейтинг и ограничения

Сайт не распространяет и не хранит электронные версии произведений, а лишь предоставляет доступ к создаваемому пользователями каталогу ссылок на торрент-файлы, которые содержат только списки хеш-сумм

[Профиль] [ЛС]
Показать сообщения:    
Ответить на тему

Текущее время: Сегодня 04:02

Часовой пояс: GMT + 4



Вы не можете начинать темы
Вы не можете отвечать на сообщения
Вы не можете редактировать свои сообщения
Вы не можете удалять свои сообщения
Вы не можете голосовать в опросах
Вы не можете прикреплять файлы к сообщениям
Вы не можете скачивать файлы