Стервятники / Scavengers / Space Soldiers (Трэвис Заривны / Travis Zariwny) [2013, США, фантастика, триллер, BDRemux 1080p] VO (VANO) + Original Eng

Ответить на тему
 
Автор Сообщение

user ®

Стаж: 7 лет 7 месяцев

Сообщений: 20008

Пост Пост: #1 от 22-Июл-2013 12:20

[Цитировать]

Стервятники / Scavengers / Space Soldiers Год выпуска: 2013
Страна: США
Жанр: фантастика, триллер
Продолжительность: 01:33:27.712
Перевод: Одноголосый закадровый VANO
Оригинальная аудиодорожка: Английская
Субтитры: нет
Студия: California Pictures
Режиссёр: Трэвис Заривны / Travis Zariwny
В ролях: Джон Ли Амес, Роурк Критчлоу, Бретт Куртз, Шон Патрик Флэнери, Дженнифер Джэлен, Луиз Линтон, Джереми Лондон, Дж.Дж. Нолан, Тайлер Поэлль, Расселл Ричардсон и др.
Описание: Научно-фантастический фильм про космических искателей «ничейных» товаров, энергии и сокровищ. Когда команда под предводительством Эмерсон находит инопланетный Генератор Хаоса, их ждёт неприятная встреча с бывшим партнёром -злобным капитаном Джекелем.
  • Кинопоиск
  • IMDB
  • Blu-ray.com
  • Сэмпл
    Качество: BDRemux 1080p
    Контейнер: MKV
    Видео кодек: MPEG-4 AVC Video
    Аудио кодек: DTS-HD Master Audio / Dolby Digital Audio
    Видео: MPEG-4 AVC Video / 20046 kbps / 1920x1080p / 23,976 fps / 16:9 / High Profile 4.1
    Аудио 1: Русский / Dolby Digital Audio / 5.1 / 48 kHz / 448 kbps / 16-bit / VO VANO
    Аудио 2: English / DTS-HD Master Audio / 5.1 / 48 kHz / 2218 kbps / 16-bit (DTS Core: 5.1 / 48 kHz / 1509 kbps / 16-bit) / Оригинал
    Навигация по главам: да

Скриншот с названием фильма

MediaInfo

C:\***\Стервятники (Scavengers) (Space Soldiers) 2013, США, фантастика, триллер, BDRemux 1080p GORESEWAGE.mkv
General
Unique ID : 208620672068813724085232753345506385632 (0x9CF2E14374D1A5C9950424255CE51EE0)
Complete name : C:\***\Стервятники (Scavengers) (Space Soldiers) 2013, США, фантастика, триллер, BDRemux 1080p GORESEWAGE.mkv
Format : Matroska
Format version : Version 4 / Version 2
File size : 14.8 GiB
Duration : 1h 33mn
Overall bit rate mode : Variable
Overall bit rate : 22.7 Mbps
Movie name : GORESEWAGE
Encoded date : UTC 2013-07-20 19:42:14
Writing application : mkvmerge v6.1.0 ('Old Devil') built on Mar 31 2013 15:21:18
Writing library : libebml v1.3.0 + libmatroska v1.4.0
Video #1
ID : 1
Format : AVC
Format/Info : Advanced Video Codec
Format profile : High@L4.1
Format settings, CABAC : Yes
Format settings, ReFrames : 4 frames
Codec ID : V_MPEG4/ISO/AVC
Duration : 1h 33mn
Bit rate mode : Variable
Bit rate : 19.7 Mbps
Maximum bit rate : 35.0 Mbps
Width : 1 920 pixels
Height : 1 080 pixels
Display aspect ratio : 16:9
Frame rate mode : Constant
Frame rate : 23.976 fps
Color space : YUV
Chroma subsampling : 4:2:0
Bit depth : 8 bits
Scan type : Progressive
Bits/(Pixel*Frame) : 0.397
Stream size : 12.9 GiB (87%)
Title : GORESEWAGE
Language : English
Default : Yes
Forced : No
Audio #2
ID : 2
Format : AC-3
Format/Info : Audio Coding 3
Mode extension : CM (complete main)
Format settings, Endianness : Big
Codec ID : A_AC3
Duration : 1h 33mn
Bit rate mode : Constant
Bit rate : 448 Kbps
Channel(s) : 6 channels
Channel positions : Front: L C R, Side: L R, LFE
Sampling rate : 48.0 KHz
Bit depth : 16 bits
Compression mode : Lossy
Stream size : 299 MiB (2%)
Title : Одноголосый закадровый VANO
Language : Russian
Default : Yes
Forced : No
Audio #3
ID : 3
Format : DTS
Format/Info : Digital Theater Systems
Format profile : MA / Core
Codec ID : A_DTS
Duration : 1h 33mn
Bit rate mode : Variable
Bit rate : 2 068 Kbps / 1 510 Kbps
Channel(s) : 6 channels
Channel positions : Front: L C R, Side: L R, LFE
Sampling rate : 48.0 KHz
Bit depth : 16 bits
Compression mode : Lossless / Lossy
Title : Оригинал
Language : English
Default : No
Forced : No
Menu
00:00:00.000 : en:00:00:00.000
00:09:21.227 : en:00:09:21.227
00:17:40.393 : en:00:17:40.393
00:24:23.545 : en:00:24:23.545
00:30:41.423 : en:00:30:41.423
00:37:09.727 : en:00:37:09.727
00:48:46.423 : en:00:48:46.423
00:56:11.618 : en:00:56:11.618
01:05:18.706 : en:01:05:18.706
01:13:52.053 : en:01:13:52.053
01:23:25.626 : en:01:23:25.626
01:31:07.087 : en:01:31:07.087

Полноразмерные постеры

Скачать

Скачать торрент!

Как скачивать? · Что такое торрент? · Рейтинг и ограничения

Сайт не распространяет и не хранит электронные версии произведений, а лишь предоставляет доступ к создаваемому пользователями каталогу ссылок на торрент-файлы, которые содержат только списки хеш-сумм

[Профиль] [ЛС]
Показать сообщения:    
Ответить на тему

Текущее время: Сегодня 11:43

Часовой пояс: GMT + 4



Вы не можете начинать темы
Вы не можете отвечать на сообщения
Вы не можете редактировать свои сообщения
Вы не можете удалять свои сообщения
Вы не можете голосовать в опросах
Вы не можете прикреплять файлы к сообщениям
Вы не можете скачивать файлы