Нация мечтателей / Daydream Nation (Майкл Голдбах / Michael Goldbach) [2010, Канада, драма, мелодрама, BDRemux 1080p] DVO (НТВ+) + VO (zamez) + Original (Eng) + Subs (Rus, Eng)

Ответить на тему
 
Автор Сообщение

user ®

Стаж: 7 лет 7 месяцев

Сообщений: 20008

Пост Пост: #1 от 22-Июл-2013 12:20

[Цитировать]

Нация мечтателей / Daydream Nation

-
-Страна: Канада
Студия: Lila 9th Productions, Screen Siren Pictures Inc., The Film Farm
Жанр: драма, мелодрама
Год выпуска: 2010
Продолжительность: 01:38:18--Перевод 1: Профессиональный (двухголосый закадровый) НТВ+
Перевод 2: Одноголосый закадровый zamez по переводу alex-kam
Cубтитры: Русские (alex-kam), английские SDH
Оригинальная аудиодорожка: английский--Режиссер: Майкл Голдбах / Michael Goldbach
В ролях: Кэт Деннингс, Рис Томпсон, Джош Лукас, Энди МакДауэлл, Рейчел Бланчард, Наташа Калис, Куинн Лорд, Калум Уорти, Кэти Боланд, Женевьев Бешнер и др.--Описание: Городская девушка приезжает в маленький городок и впутывается в опасный любовный треугольник, разрываясь между своим школьным учителем и симпатичным одноклассником.--imdb | kinopoisk | Сэмпл--Тип релиза: BDRemux 1080p [Daydream Nation 2010 1080p Blu-ray AVC TrueHD 5 1-BeyondHD]
Контейнер: MKV
Видео: MPEG-4 AVC / 23686 kbps / 1920x1080 / 24 fps / 16:9 / High Profile 4.1
Аудио 1: AC3 / 2.0 / 48 kHz / 192 kbps / 16 bits |DVO|
Аудио 2: AC3 / 5.1 / 48 kHz / 448 kbps / 16 bits |VO|
Аудио 3: DTS-HD Master Audio / 5.1 / 48 kHz / 3463 kbps / 24 bits (DTS Core: 5.1 / 48 kHz / 1510 kbps / 24 bits) |original|
Формат субтитров: softsub [SRT]

MediaInfo

ОбщееУникальный идентификатор : 219794650811861096023903865573993534416 (0xA55AE8F33C22153C95B3C1EED992D3D0)Полное имя : G:\HD\Нация мечтателей.2010.Blu-Ray.Remux.(1080p).mkvФормат : MatroskaВерсия формата : Version 2Размер файла : 19,1 ГбайтПродолжительность : 1 ч. 38 м.Режим общего битрейта : ПеременныйОбщий поток : 27,8 Мбит/секДата кодирования : UTC 2013-07-21 05:25:24Программа кодирования : mkvmerge v5.8.0 ('No Sleep / Pillow') built on Sep 2 2012 15:37:04Библиотека кодирования : libebml v1.2.3 + libmatroska v1.3.0Attachment : Yes
ВидеоИдентификатор : 1Формат : AVCФормат/Информация : Advanced Video CodecПрофиль формата : High@L4.1Параметр CABAC формата : ДаПараметр ReFrames формата : 2 кадраРежим смешивания : Container profile=Unknown@0.0Идентификатор кодека : V_MPEG4/ISO/AVCПродолжительность : 1 ч. 38 м.Вид битрейта : ПеременныйШирина : 1920 пикселейВысота : 1080 пикселейСоотношение сторон : 16:9Режим частоты кадров : ПостоянныйЧастота кадров : 23,976 кадра/секЦветовое пространство : YUVСубдискретизация насыщенности : 4:2:0Битовая глубина : 8 битТип развёртки : ПрогрессивнаяDefault : ДаForced : Нет
Аудио #1Идентификатор : 2Формат : AC-3Формат/Информация : Audio Coding 3Расширение режима : CM (complete main)Параметр Endianness формата : BigИдентификатор кодека : A_AC3Продолжительность : 1 ч. 38 м.Вид битрейта : ПостоянныйБитрейт : 192 Кбит/секКаналы : 2 каналаРасположение каналов : Front: L RЧастота : 48,0 КГцБитовая глубина : 16 битМетод сжатия : С потерямиРазмер потока : 135 Мбайт (1%)Заголовок : DVO, НТВ+Язык : RussianDefault : ДаForced : Нет
Аудио #2Идентификатор : 3Формат : AC-3Формат/Информация : Audio Coding 3Расширение режима : CM (complete main)Параметр Endianness формата : BigИдентификатор кодека : A_AC3Продолжительность : 1 ч. 38 м.Вид битрейта : ПостоянныйБитрейт : 448 Кбит/секКаналы : 6 каналовРасположение каналов : Front: L C R, Side: L R, LFEЧастота : 48,0 КГцБитовая глубина : 16 битМетод сжатия : С потерямиРазмер потока : 315 Мбайт (2%)Заголовок : VO, zamezЯзык : RussianDefault : НетForced : Нет
Аудио #3Идентификатор : 4Формат : DTSФормат/Информация : Digital Theater SystemsПрофиль формата : MA / CoreРежим : 16Параметр Endianness формата : BigИдентификатор кодека : A_DTSПродолжительность : 1 ч. 38 м.Вид битрейта : ПеременныйБитрейт : Неизвестно / 1509 Кбит/секКаналы : 6 каналовРасположение каналов : Front: L C R, Side: L R, LFEЧастота : 48,0 КГцБитовая глубина : 24 битМетод сжатия : Без потерь / LossyЯзык : EnglishDefault : НетForced : Нет
Текст #1Идентификатор : 5Формат : UTF-8Идентификатор кодека : S_TEXT/UTF8Идентификатор кодека/Информация : UTF-8 Plain TextЗаголовок : alex-kamЯзык : RussianDefault : НетForced : Нет
Текст #2Идентификатор : 6Формат : UTF-8Идентификатор кодека : S_TEXT/UTF8Идентификатор кодека/Информация : UTF-8 Plain TextЗаголовок : SDHЯзык : EnglishDefault : НетForced : Нет
Меню00:00:00.000 : :Chapter 0100:10:38.471 : :Chapter 0200:18:40.202 : :Chapter 0300:26:06.773 : :Chapter 0400:33:20.248 : :Chapter 0500:41:35.784 : :Chapter 0600:52:04.746 : :Chapter 0700:58:39.140 : :Chapter 0801:04:15.142 : :Chapter 0901:18:00.717 : :Chapter 1001:26:37.317 : :Chapter 1101:33:25.182 : :Chapter 12

Скриншоты


Скачать

Скачать торрент!

Как скачивать? · Что такое торрент? · Рейтинг и ограничения

Сайт не распространяет и не хранит электронные версии произведений, а лишь предоставляет доступ к создаваемому пользователями каталогу ссылок на торрент-файлы, которые содержат только списки хеш-сумм

[Профиль] [ЛС]
Показать сообщения:    
Ответить на тему

Текущее время: Сегодня 20:17

Часовой пояс: GMT + 4



Вы не можете начинать темы
Вы не можете отвечать на сообщения
Вы не можете редактировать свои сообщения
Вы не можете удалять свои сообщения
Вы не можете голосовать в опросах
Вы не можете прикреплять файлы к сообщениям
Вы не можете скачивать файлы