Обливион / Oblivion (Джозеф Косински / Joseph Kosinski) [2013, США, фантастика, боевик, триллер, приключения, HDTVRip] VO ([den904])

Ответить на тему
 
Автор Сообщение

user ®

Стаж: 7 лет 7 месяцев

Сообщений: 20008

Пост Пост: #1 от 22-Июл-2013 09:10

[Цитировать]

ОбливионOblivion«Earth is a memory worth fighting for.»
Страна: США
Жанр: фантастика, боевик, триллер, приключения
Год выпуска: 2013
Продолжительность: 02:04:37
Перевод: Одноголосый закадровый [den904]
Cубтитры: вшитые корейские
Оригинальная аудиодорожка: нет
Режиссер: Джозеф Косински / Joseph Kosinski
В ролях: Том Круз, Ольга Куриленко, Морган Фриман, Андреа Райзборо, Николай Костер-Вальдау, Мелисса Лео, Зои Белл, Эбигейл Лоу, Изабель Лоу, Дэвид Мэдисон
Описание: Можно ли скучать по месту, в котором никогда не был, мечтать о девушке, которую никогда не видел? Добро пожаловать в будущее! Мы больше не можем называть Землю своим домом. Мы выиграли войну, но не смогли сохранить планету…
Доп. информация:

Качество видео: HDTVRip [ HDTV 720p]
Формат видео: AVI
Видео: 720x400 (16:9), 29.970 fps, XviD~1476 kbps avg, 0.171 bit/pixel
Аудио: 48 kHz, AC3 Dolby Digital, 2/0 (L,R) ch, ~192 kbps
Формат субтитров: hardsub (неотключаемые)

MediaInfo

Полное имя : C:\Фильмы\Обливион\Oblivion.2013.L1.HDTVRip.1.46Gb.avi
Формат : AVI
Формат/Информация : Audio Video Interleave
Размер файла : 1,46 Гбайт
Продолжительность : 2 ч. 4 м.
Общий поток : 1680 Кбит/сек
Программа кодирования : VirtualDubMod 1.5.10.2 (build 2540/release)
Библиотека кодирования : VirtualDubMod build 2540/release
Идентификатор : 0
Формат : MPEG-4 Visual
Профиль формата : Advanced Simple@L5
Параметр BVOP формата : 2
Параметр QPel формата : Нет
Параметр GMC формата : Без точки перехода
Параметр матрицы формата : Default (MPEG)
Идентификатор кодека : XVID
Идентификатор кодека/Подсказка : XviD
Продолжительность : 2 ч. 4 м.
Битрейт : 1476 Кбит/сек
Ширина : 720 пикселей
Высота : 400 пикселей
Соотношение сторон : 16:9
Частота кадров : 29,970 кадров/сек
Цветовое пространство : YUV
Субдискретизация насыщенности : 4:2:0
Битовая глубина : 8 бит
Тип развёртки : Прогрессивная
Метод сжатия : С потерями
Бит/(Пиксели*Кадры) : 0.171
Размер потока : 1,28 Гбайт (88%)
Библиотека кодирования : XviD 1.2.1 (UTC 2008-12-04)
Идентификатор : 1
Формат : AC-3
Формат/Информация : Audio Coding 3
Расширение режима : CM (complete main)
Параметр Endianness формата : Big
Идентификатор кодека : 2000
Продолжительность : 2 ч. 4 м.
Вид битрейта : Постоянный
Битрейт : 192 Кбит/сек
Каналы : 2 канала
Расположение каналов : Front: L R
Частота : 48,0 КГц
Битовая глубина : 16 бит
Метод сжатия : С потерями
Размер потока : 171 Мбайт (11%)
Выравнивание : Разделение по промежуткам
Продолжительность промежутка : 33 мс. (1,00 видеокадр)
Время предзагрузки промежутка : 500 мс.

Скриншот c названием фильма

Скриншоты

Скачать

Скачать торрент!

Как скачивать? · Что такое торрент? · Рейтинг и ограничения

Сайт не распространяет и не хранит электронные версии произведений, а лишь предоставляет доступ к создаваемому пользователями каталогу ссылок на торрент-файлы, которые содержат только списки хеш-сумм

[Профиль] [ЛС]
Показать сообщения:    
Ответить на тему

Текущее время: Сегодня 10:45

Часовой пояс: GMT + 4



Вы не можете начинать темы
Вы не можете отвечать на сообщения
Вы не можете редактировать свои сообщения
Вы не можете удалять свои сообщения
Вы не можете голосовать в опросах
Вы не можете прикреплять файлы к сообщениям
Вы не можете скачивать файлы