Побег с золотом / Fly With The Gold / Ogon O Daite Tobe (Кадзуюки Идзуцу / Kazuyuki Izutsu) [2012, Япония, драма, детектив, BDRip] Sub Rus

Ответить на тему
 
Автор Сообщение

user ®

Стаж: 13 лет

Сообщений: 15071

Пост Пост: #1 от 22-Июл-2013 02:50

[Цитировать]

Побег с золотом / Fly With The Gold / Ogon O Daite Tobe
Страна: Япония
Жанр: драма, детектив
Год выпуска: 2012
Продолжительность: 02:10:06
Перевод: Субтитры
Cубтитры: русские
Режиссер: Кадзуюки Идзуцу / Kazuyuki Izutsu
В ролях: Сатоши Цумабуки / Satoshi Tsumabuki в роли Коды
Таданобу Асано / Tadanobu Asano - в роли Китагавы
Шим Чанмин / Shim Chang-Min в роли Momo
Кента Киритани / Kenta Kiritani - в роли Ноды
Джунпей Мизобата / Junpei Mizobata - в роли Харуки
Тошиюки Нишида / Toshiyuki Nishida - в роли Деда
Описание: Два давних приятеля - Кода (Цумабуки Сатоши) и Китагава (Таданобу Асано) собираются грабить банк. Цена вопроса - 2,5 миллиарда долларов в золотых слитках. Для осуществления задачи друзьям понадобятся еще четверо подельников. Ставки высоки, план хорош, только дело разваливается по кускам еще до начала операции. У каждого из соучастников свой груз грехов. Сможет ли хоть кто-то из них выплыть на поверхность живым и невредимым, или золото утащит на дно?


Сэмпл: http://multi-up.com/886810
Качество видео: BDRip
Формат видео: MP4
Видео: MPEG4 Video (H264), 1024x432, 2.35:1, 23.98fps, 935 Kbps
Аудио: AAC, 48000Hz, 407kbps, 6ch
Формат субтитров: softsub (SRT)

MediaInfo

Format : MPEG-4
Format profile : Base Media
Codec ID : isom
File size : 1.22 GiB
Duration : 2h 10mn
Overall bit rate : 1 346 Kbps
Encoded date : UTC 2013-04-03 12:03:14
Tagged date : UTC 2013-04-03 12:03:14
Video
ID : 1
Format : AVC
Format/Info : Advanced Video Codec
Format profile : High@L4.1
Format settings, CABAC : Yes
Format settings, ReFrames : 4 frames
Codec ID : avc1
Codec ID/Info : Advanced Video Coding
Duration : 2h 10mn
Bit rate : 935 Kbps
Maximum bit rate : 15.5 Mbps
Width : 1 024 pixels
Height : 432 pixels
Display aspect ratio : 2.35:1
Frame rate mode : Constant
Frame rate : 23.976 fps
Color space : YUV
Chroma subsampling : 4:2:0
Bit depth : 8 bits
Scan type : Progressive
Bits/(Pixel*Frame) : 0.088
Stream size : 870 MiB (69%)
Writing library : x264 core 130 r2273 b3065e6
Encoding settings : cabac=1 / ref=3 / deblock=1:0:0 / analyse=0x3:0x113 / me=hex / subme=7 / psy=1 / psy_rd=1.00:0.00 / mixed_ref=1 / me_range=16 / chroma_me=1 / trellis=1 / 8x8dct=1 / cqm=0 / deadzone=21,11 / fast_pskip=1 / chroma_qp_offset=-2 / threads=12 / lookahead_threads=2 / sliced_threads=0 / nr=0 / decimate=1 / interlaced=0 / bluray_compat=0 / constrained_intra=0 / bframes=3 / b_pyramid=2 / b_adapt=1 / b_bias=0 / direct=1 / weightb=1 / open_gop=0 / weightp=2 / keyint=240 / keyint_min=23 / scenecut=40 / intra_refresh=0 / rc_lookahead=40 / rc=crf / mbtree=1 / crf=20.5 / qcomp=0.60 / qpmin=0 / qpmax=69 / qpstep=4 / ip_ratio=1.40 / aq=1:1.00
Encoded date : UTC 2013-04-03 10:27:49
Tagged date : UTC 2013-04-03 12:03:36
Audio
ID : 2
Format : AAC
Format/Info : Advanced Audio Codec
Format profile : LC
Codec ID : 40
Duration : 2h 10mn
Bit rate mode : Variable
Bit rate : 407 Kbps
Maximum bit rate : 593 Kbps
Channel(s) : 6 channels
Channel positions : Front: L C R, Side: L R, LFE
Sampling rate : 48.0 KHz
Compression mode : Lossy
Stream size : 379 MiB (30%)
Title : aac#trackID=1:lang=ja@GPAC0.5.1-DEV-rev4283
Language : Japanese
Encoded date : UTC 2013-04-03 12:03:29
Tagged date : UTC 2013-04-03 12:03:36

Скриншот c названием фильма

Скриншоты

Фрагмент субтитров

6
00:01:17,160 --> 00:01:20,820
-- ПОБЕГ С ЗОЛОТОМ --
7
00:01:57,580 --> 00:01:59,170
Так это был ты?
8
00:02:00,320 --> 00:02:03,290
Шесть лет прошло.
9
00:02:13,190 --> 00:02:16,050
Хорошо живется в Осаке?
10
00:02:26,620 --> 00:02:29,810
Мы беспокоились из-за того,
что не могли связаться с тобой.
11
00:02:29,810 --> 00:02:34,550
Возвращайся на родину,
партия поможет тебе.
12
00:02:34,550 --> 00:02:39,510
Теперь ты можешь
вернуться без опаски.
13
00:02:39,510 --> 00:02:43,230
Спасибо большое.
14
00:02:50,640 --> 00:02:55,340
Ты... бросил работу учителя?
15
00:02:55,340 --> 00:02:58,160
Наша сестренка уже учится в колледже.
16
00:02:58,160 --> 00:03:00,260
Будет геологом по специальности.
17
00:03:00,260 --> 00:03:08,040
Мама все еще жалуется на спину,
а так, здоровье ничего.
18
00:03:08,040 --> 00:03:15,020
В Японии все так дорого.
Я никак не привыкну.
19
00:03:29,710 --> 00:03:30,800
Возьми.
20
00:04:07,050 --> 00:04:11,080
Да здравствует воссоединение
нашей Родины!
21
00:04:13,240 --> 00:04:14,890
Брат...
22
00:04:43,390 --> 00:04:45,880
Дорогу!
23
00:05:07,270 --> 00:05:09,720
Воспоминания возвращаются?
24
00:05:09,720 --> 00:05:12,730
Ничего толком не помню.
25
00:05:12,730 --> 00:05:16,260
Тебе было всего пять лет.
26
00:05:16,260 --> 00:05:19,500
Думаю, что ты мог быть жить
со мной в Осаке.
27
00:05:19,500 --> 00:05:23,790
Сможешь работать в нашей торговой компании.
28
00:05:23,790 --> 00:05:26,810
Не нравится тяжелая работа -
в офис тебя пристроим.
29
00:05:26,810 --> 00:05:30,340
Я не против.
Скачать

Скачать торрент! Побег с золотом / Fly With The Gold / Ogon O Daite Tobe (Кадзуюки Идзуцу / Kazuyuki Izutsu) [2012, Япония, драма, детектив, BDRip] Sub Rus

Как скачивать? · Что такое торрент? · Рейтинг и ограничения

Сайт не распространяет и не хранит электронные версии произведений, а лишь предоставляет доступ к создаваемому пользователями каталогу ссылок на торрент-файлы, которые содержат только списки хеш-сумм

[Профиль] [ЛС]
Показать сообщения:    
Ответить на тему

Текущее время: Сегодня 12:13

Часовой пояс: GMT + 4



Вы не можете начинать темы
Вы не можете отвечать на сообщения
Вы не можете редактировать свои сообщения
Вы не можете удалять свои сообщения
Вы не можете голосовать в опросах
Вы не можете прикреплять файлы к сообщениям
Вы не можете скачивать файлы