Транс / Trance (Дэнни Бойл / Danny Boyle) [2013, Великобритания, Франция, триллер, драма, криминал, детектив, BDRip-AVC] Dub (LINE) + Original (Eng) + Sub (Eng)

Ответить на тему
 
Автор Сообщение

user ®

Стаж: 7 лет 7 месяцев

Сообщений: 20008

Пост Пост: #1 от 21-Июл-2013 23:40

[Цитировать]

Транс / Trance
Страна: Великобритания, Франция
Жанр: триллер, драма, криминал, детектив
Год выпуска: 2013
Продолжительность: 01:41:19
Перевод: Профессиональный (дублированный) | LINE
Cубтитры: английские
Оригинальная аудиодорожка: английский
Режиссер: Дэнни Бойл
В ролях: Джеймс МакЭвой, Венсан Кассель, Розарио Доусон, Дэнни Сапани, Мэттью Кросс, Вахаб Ахмед Шейх, Марк Полтимор, Таппенс Мидлтон, Саймон Кунц, Майкл Шэйффер
Описание: Аукционер Саймон вступает в сговор с бандой грабителей и организует похищение уникального лота стоимостью в миллионы долларов. Однако налет оканчивается не совсем так, как он предполагал вначале. Аукционера оглушают ударом тупого предмета по голове, в результате которого он теряет какие бы то ни было воспоминания о том, что произошло...

Исходник: Trance 2013 1080p Blu-ray Remux AVC DTS-HD MA 7.1 - KRaLiMaRKo
Качество видео: BDRip-AVC | sample
Формат видео: MKV
Видео кодек: x264
Видео: AVC 1152x480 (2.40:1), 23.976 fps, ~3200 Kbps, 0.24 bit/pixel
Аудио #1: Russian AC3 6ch 48kHz 448Kbps | Dub LINE
Аудио #2: English AC3 6ch 48kHz 448Kbps | Original
Формат субтитров: softsub (SRT)
Главы: есть

MediaInfo | x264

x264

--[Information] [20.07.2013 15:10:11] raw [info]: 1152x480p 1:1 @ 24000/1001 fps (cfr)
--[Information] [20.07.2013 15:10:11] x264 [info]: using SAR=1/1
--[Information] [20.07.2013 15:10:11] x264 [info]: using cpu capabilities: MMX2 SSE2Fast SSEMisalign LZCNT
--[Information] [20.07.2013 15:10:11] x264 [info]: profile High, level 4.1
--[Information] [20.07.2013 15:10:11] x264 [info]: cabac=1 ref=12 deblock=1:-3:-3 analyse=0x3:0x113 me=umh subme=10 psy=1 fade_compensate=0.00 psy_rd=1.00:0.00 mixed_ref=1 me_range=32 chroma_me=1 trellis=2 8x8dct=1 cqm=0 deadzone=21,11 fast_pskip=0 chroma_qp_offset=-2 threads=6 lookahead_threads=1 sliced_threads=0 nr=0 decimate=0 interlaced=0 bluray_compat=0 constrained_intra=0 bframes=16 b_pyramid=2 b_adapt=2 b_bias=0 direct=3 weightb=1 open_gop=0 weightp=2 keyint=240 keyint_min=23 scenecut=40 intra_refresh=0 rc_lookahead=80 rc=2pass mbtree=1 bitrate=3200 ratetol=1.0 qcomp=0.70 qpmin=0 qpmax=69 qpstep=4 cplxblur=20.0 qblur=0.5 vbv_maxrate=50000 vbv_bufsize=62500 nal_hrd=none ip_ratio=1.40 aq=1:1.00 zones=138980,145752,q=30
--[Information] [20.07.2013 15:10:11] frames fps kb/s elapsed remain size est.size
--[Information] [20.07.2013 21:10:00] x264 [info]: frame I:1214 Avg QP:13.41 size: 96933
--[Information] [20.07.2013 21:10:00] x264 [info]: frame P:31188 Avg QP:16.72 size: 31573
--[Information] [20.07.2013 21:10:00] x264 [info]: frame B:113351 Avg QP:17.72 size: 11725
--[Information] [20.07.2013 21:10:00] x264 [info]: consecutive B-frames: 2.2% 2.6% 8.4% 20.1% 18.0% 34.2% 6.0% 1.3% 1.1% 0.8% 0.8% 0.5% 0.2% 0.3% 0.1% 3.1% 0.1%
--[Information] [20.07.2013 21:10:00] x264 [info]: mb I I16..4: 5.8% 74.5% 19.8%
--[Information] [20.07.2013 21:10:00] x264 [info]: mb P I16..4: 1.9% 13.6% 1.7% P16..4: 36.2% 27.9% 15.1% 0.0% 0.0% skip: 3.5%
--[Information] [20.07.2013 21:10:00] x264 [info]: mb B I16..4: 0.1% 1.6% 0.2% B16..8: 37.3% 14.1% 4.2% direct: 6.5% skip:36.1% L0:44.9% L1:43.1% BI:11.9%
--[Information] [20.07.2013 21:10:00] x264 [info]: 8x8 transform intra:80.2% inter:61.6%
--[Information] [20.07.2013 21:10:00] x264 [info]: direct mvs spatial:98.3% temporal:1.7%
--[Information] [20.07.2013 21:10:00] x264 [info]: coded y,uvDC,uvAC intra: 87.4% 91.3% 79.5% inter: 25.2% 32.6% 21.0%
--[Information] [20.07.2013 21:10:00] x264 [info]: i16 v,h,dc,p: 27% 10% 7% 55%
--[Information] [20.07.2013 21:10:00] x264 [info]: i8 v,h,dc,ddl,ddr,vr,hd,vl,hu: 10% 8% 7% 10% 14% 13% 13% 12% 13%
--[Information] [20.07.2013 21:10:00] x264 [info]: i4 v,h,dc,ddl,ddr,vr,hd,vl,hu: 10% 7% 4% 11% 16% 15% 14% 11% 13%
--[Information] [20.07.2013 21:10:00] x264 [info]: i8c dc,h,v,p: 47% 17% 16% 20%
--[Information] [20.07.2013 21:10:00] x264 [info]: Weighted P-Frames: Y:4.4% UV:2.6%
--[Information] [20.07.2013 21:10:00] x264 [info]: ref P L0: 49.7% 6.4% 15.8% 7.9% 5.8% 4.2% 3.4% 2.0% 1.6% 1.3% 1.0% 0.9% 0.1% 0.0%
--[Information] [20.07.2013 21:10:00] x264 [info]: ref B L0: 68.6% 14.6% 6.4% 3.3% 2.3% 1.7% 1.3% 0.8% 0.6% 0.3% 0.1%
--[Information] [20.07.2013 21:10:00] x264 [info]: ref B L1: 91.7% 8.3%
--[Information] [20.07.2013 21:10:00] x264 [info]: kb/s:3199.71
General
Complete name : E:\...\Trance.2013.BDRip.x264.DD5.1.Rus.LINE.Eng-E76.mkv
Format : Matroska
Format version : Version 4 / Version 2
File size : 2.90 GiB
Duration : 1h 41mn
Overall bit rate : 4 098 Kbps
Movie name : Trance.2013.BDRip.x264.DD5.1.Rus.LINE.Eng-E76
Encoded date : UTC 2013-07-21 14:31:22
Writing application : mkvmerge v6.2.0 ('Promised Land') built on Apr 28 2013 12:22:01
Writing library : libebml v1.3.0 + libmatroska v1.4.0
Video
ID : 1
Format : AVC
Format/Info : Advanced Video Codec
Format profile : High@L4.1
Format settings, CABAC : Yes
Format settings, ReFrames : 12 frames
Codec ID : V_MPEG4/ISO/AVC
Duration : 1h 41mn
Bit rate : 3 200 Kbps
Width : 1 152 pixels
Height : 480 pixels
Display aspect ratio : 2.40:1
Frame rate mode : Constant
Frame rate : 23.976 fps
Color space : YUV
Chroma subsampling : 4:2:0
Bit depth : 8 bits
Scan type : Progressive
Bits/(Pixel*Frame) : 0.241
Stream size : 2.21 GiB (76%)
Title : Encode by Enclave76
Writing library : x264 core 135 r2345kMod f0c1c53
Encoding settings : cabac=1 / ref=12 / deblock=1:-3:-3 / analyse=0x3:0x113 / me=umh / subme=10 / psy=1 / fade_compensate=0.00 / psy_rd=1.00:0.00 / mixed_ref=1 / me_range=32 / chroma_me=1 / trellis=2 / 8x8dct=1 / cqm=0 / deadzone=21,11 / fast_pskip=0 / chroma_qp_offset=-2 / threads=6 / lookahead_threads=1 / sliced_threads=0 / nr=0 / decimate=0 / interlaced=0 / bluray_compat=0 / constrained_intra=0 / bframes=16 / b_pyramid=2 / b_adapt=2 / b_bias=0 / direct=3 / weightb=1 / open_gop=0 / weightp=2 / keyint=240 / keyint_min=23 / scenecut=40 / intra_refresh=0 / rc_lookahead=80 / rc=2pass / mbtree=1 / bitrate=3200 / ratetol=1.0 / qcomp=0.70 / qpmin=0 / qpmax=69 / qpstep=4 / cplxblur=20.0 / qblur=0.5 / vbv_maxrate=50000 / vbv_bufsize=62500 / nal_hrd=none / ip_ratio=1.40 / aq=1:1.00 / zones=138980,145752,q=30
Language : English
Default : No
Forced : No
Matrix coefficients : BT.709
Audio #1
ID : 2
Format : AC-3
Format/Info : Audio Coding 3
Mode extension : CM (complete main)
Format settings, Endianness : Big
Codec ID : A_AC3
Duration : 1h 41mn
Bit rate mode : Constant
Bit rate : 448 Kbps
Channel(s) : 6 channels
Channel positions : Front: L C R, Side: L R, LFE
Sampling rate : 48.0 KHz
Bit depth : 16 bits
Compression mode : Lossy
Stream size : 325 MiB (11%)
Title : Dub LINE
Language : Russian
Default : Yes
Forced : No
Audio #2
ID : 3
Format : AC-3
Format/Info : Audio Coding 3
Mode extension : CM (complete main)
Format settings, Endianness : Big
Codec ID : A_AC3
Duration : 1h 41mn
Bit rate mode : Constant
Bit rate : 448 Kbps
Channel(s) : 6 channels
Channel positions : Front: L C R, Side: L R, LFE
Sampling rate : 48.0 KHz
Bit depth : 16 bits
Compression mode : Lossy
Stream size : 325 MiB (11%)
Title : Original
Language : English
Default : No
Forced : No
Text #1
ID : 4
Format : UTF-8
Codec ID : S_TEXT/UTF8
Codec ID/Info : UTF-8 Plain Text
Language : English
Default : No
Forced : No
Text #2
ID : 5
Format : UTF-8
Codec ID : S_TEXT/UTF8
Codec ID/Info : UTF-8 Plain Text
Title : SDH
Language : English
Default : No
Forced : No
Menu
00:00:00.000 : en:00:00:00.000
00:04:05.871 : en:00:04:05.871
...
01:35:32.769 : en:01:35:32.769

Скриншоты




vs source
Скачать

Скачать торрент!

Как скачивать? · Что такое торрент? · Рейтинг и ограничения

Сайт не распространяет и не хранит электронные версии произведений, а лишь предоставляет доступ к создаваемому пользователями каталогу ссылок на торрент-файлы, которые содержат только списки хеш-сумм

[Профиль] [ЛС]
Показать сообщения:    
Ответить на тему

Текущее время: Сегодня 12:37

Часовой пояс: GMT + 4



Вы не можете начинать темы
Вы не можете отвечать на сообщения
Вы не можете редактировать свои сообщения
Вы не можете удалять свои сообщения
Вы не можете голосовать в опросах
Вы не можете прикреплять файлы к сообщениям
Вы не можете скачивать файлы