Легендарный удар / Lang tzu yi chao / The Legendary Strike (Фенг Хуанг / Feng Huang) [1978, Гонконг, Тайвань, боевик, приключения, восточные единоборства, DVDRip] AVO (Сергей Кузнецов)

Ответить на тему
 
Автор Сообщение

user ®

Стаж: 11 лет

Сообщений: 15151

Пост Пост: #1 от 21-Июл-2013 20:30

[Цитировать]

Легендарный удар
Lang tzu yi chao
The Legendary Strike
-- Страна: Гонконг, Тайвань
Жанр: боевик, приключения, восточные единоборства
Год выпуска: 1978
Продолжительность: 01:28:31--Перевод: Авторский (одноголосый закадровый) Сергей Кузнецов
Cубтитры: нет
Оригинальная аудиодорожка: нет--Режиссер: Фенг Хуанг / Feng Huang--В ролях: Синг Чан, Анджела Мао, Кон Чу, Картер Вон, Кенг Кэм, Ланг Чан, Чинг По Чанг, Йинг Чунг--Описание: Когда князь Юнг нанимает японского охранника для перевозки и охраны редких и драгоценных «Реликвий Дхармы», наступает ад, так как различные бойцы по всей стране соревнуются и ведут охоту за артефактом — реликвией буддизма.
--Сэмпл--Качество видео: DVDRip
Формат видео: AVI
Видео: Xvid, 624x472, 23.976fps, 2073Kbps
Аудио: MP3, 48000Hz, stereo, 128kbps-
-

MediaInfo

General
Complete name                  : E:\Torrents\Legendarnyj.udar.1978.DVDRip.by.Vok4at.avi
Format                         : AVI
Format/Info                    : Audio Video Interleave
File size                      : 1.37 GiB
Duration                       : 1h 28mn
Overall bit rate               : 2 210 Kbps
Writing application            : FairUse Wizard - http://fairusewizard.com
Writing library                : The best and REALLY easy backup tool
Video
ID                             : 0
Format                         : MPEG-4 Visual
Format profile                 : Advanced Simple@L5
Format settings, BVOP          : 1
Format settings, QPel          : No
Format settings, GMC           : No warppoints
Format settings, Matrix        : Default (MPEG)
Muxing mode                    : Packed bitstream
Codec ID                       : XVID
Codec ID/Hint                  : XviD
Duration                       : 1h 28mn
Bit rate                       : 2 073 Kbps
Width                          : 624 pixels
Height                         : 472 pixels
Display aspect ratio           : 4:3
Frame rate                     : 23.976 fps
Color space                    : YUV
Chroma subsampling             : 4:2:0
Bit depth                      : 8 bits
Scan type                      : Progressive
Compression mode               : Lossy
Bits/(Pixel*Frame)             : 0.294
Stream size                    : 1.28 GiB (94%)
Writing library                : XviD 1.2.1 (UTC 2008-12-04)
Audio
ID                             : 1
Format                         : MPEG Audio
Format version                 : Version 1
Format profile                 : Layer 3
Mode                           : Joint stereo
Mode extension                 : MS Stereo
Codec ID                       : 55
Codec ID/Hint                  : MP3
Duration                       : 1h 28mn
Bit rate mode                  : Constant
Bit rate                       : 128 Kbps
Channel(s)                     : 2 channels
Sampling rate                  : 48.0 KHz
Compression mode               : Lossy
Stream size                    : 81.0 MiB (6%)
Alignment                      : Aligned on interleaves
Interleave, duration           : 42 ms (1.00 video frame)
Interleave, preload duration   : 504 ms
Writing library                : LAME3.97
Encoding settings              : -m j -V 4 -q 2 -lowpass 17 -b 128

Скриншоты

--

-
-
Скачать

Скачать торрент! Легендарный удар / Lang tzu yi chao / The Legendary Strike (Фенг Хуанг / Feng Huang) [1978, Гонконг, Тайвань, боевик, приключения, восточные единоборства, DVDRip] AVO (Сергей Кузнецов)

Как скачивать? · Что такое торрент? · Рейтинг и ограничения

Сайт не распространяет и не хранит электронные версии произведений, а лишь предоставляет доступ к создаваемому пользователями каталогу ссылок на торрент-файлы, которые содержат только списки хеш-сумм

[Профиль] [ЛС]
Показать сообщения:    
Ответить на тему

Текущее время: Сегодня 21:46

Часовой пояс: GMT + 4



Вы не можете начинать темы
Вы не можете отвечать на сообщения
Вы не можете редактировать свои сообщения
Вы не можете удалять свои сообщения
Вы не можете голосовать в опросах
Вы не можете прикреплять файлы к сообщениям
Вы не можете скачивать файлы