Ангелы при исполнении / Angel enforcers (Годфри Хо / Godfrey Ho) [1989, Гонконг, боевик, криминал, DVDRip] VO (Jet)

Ответить на тему
 
Автор Сообщение

user ®

Стаж: 11 лет

Сообщений: 15151

Пост Пост: #1 от 21-Июл-2013 20:30

[Цитировать]

Ангелы при исполнении / Angel enforcers
Страна: Гонконг
Жанр: боевик, криминал
Год выпуска: 1989
Продолжительность: 01:26:18-Перевод: Виктор Береговых (Jet)
Переводчик: Message of death
Тайминг: Message of death
Редактура: sinner
Рип: Public Enemy (((
Субтитры: английские (вшитые)
Оригинальная аудиодорожка: нет-Режиссер: Годфри Хо / Godfrey Ho-В ролях: Шарон Юн, Филип Ко, Дик Вей, Уолтер Цо, Тай Бо-Описание: Банда из нескольких человек решает ограбить ювелирный магазин и украсть бриллиант "Африканская звезда". Бен,один из членов банды,полицейский,работающий под прикрытием.Во время ограбления ему приходится раскрыть себя и теперь бандиты горят желанием поквитаться с ним.Ларри (Филлип Ко) устраняет Бена,но при этом погибает сам от руки женщины полицейской и теперь его лучший друг (Дик Вэй) намерен отомстить легавым...(В.Береговых)-Релиз групп - -Качество видео: DVDRip (DVD5)
Формат видео: AVI
Видео: XviD, 720x432 (1.67:1), 25 fps, 2213 kbps avg, 0.28 bit/pixel
Аудио : Русский MPEG layer 3, 192 kbps
-

MediaInfo

Format : AVI
Format/Info : Audio Video Interleave
File size : 1.46 GiB
Duration : 1h 26mn
Overall bit rate : 2 416 Kbps
Writing application : VirtualDubMod 1.5.10.3 | www.virtualdub-fr.org || (build 2550/release)
Writing library : VirtualDubMod build 2550/release
Video
ID : 0
Format : MPEG-4 Visual
Format profile : Advanced Simple@L5
Format settings, BVOP : 1
Format settings, QPel : No
Format settings, GMC : No warppoints
Format settings, Matrix : Custom
Codec ID : XVID
Codec ID/Hint : XviD
Duration : 1h 26mn
Bit rate : 2 214 Kbps
Width : 720 pixels
Height : 432 pixels
Display aspect ratio : 1.667
Frame rate : 25.000 fps
Color space : YUV
Chroma subsampling : 4:2:0
Bit depth : 8 bits
Scan type : Progressive
Compression mode : Lossy
Bits/(Pixel*Frame) : 0.285
Stream size : 1.33 GiB (92%)
Writing library : XviD 73
Audio
ID : 1
Format : MPEG Audio
Format version : Version 1
Format profile : Layer 3
Codec ID : 55
Codec ID/Hint : MP3
Duration : 1h 26mn
Bit rate mode : Constant
Bit rate : 192 Kbps
Channel(s) : 2 channels
Sampling rate : 48.0 KHz
Compression mode : Lossy
Stream size : 119 MiB (8%)
Alignment : Aligned on interleaves
Interleave, duration : 40 ms (1.00 video frame)
Interleave, preload duration : 504 ms

Скриншот с названием

Скриншоты

Скачать

Скачать торрент! Ангелы при исполнении / Angel enforcers (Годфри Хо / Godfrey Ho) [1989, Гонконг, боевик, криминал, DVDRip] VO (Jet)

Как скачивать? · Что такое торрент? · Рейтинг и ограничения

Сайт не распространяет и не хранит электронные версии произведений, а лишь предоставляет доступ к создаваемому пользователями каталогу ссылок на торрент-файлы, которые содержат только списки хеш-сумм

[Профиль] [ЛС]
Показать сообщения:    
Ответить на тему

Текущее время: Сегодня 22:11

Часовой пояс: GMT + 4



Вы не можете начинать темы
Вы не можете отвечать на сообщения
Вы не можете редактировать свои сообщения
Вы не можете удалять свои сообщения
Вы не можете голосовать в опросах
Вы не можете прикреплять файлы к сообщениям
Вы не можете скачивать файлы