Штурм Белого дома / White House Down (Роланд Эммерих / Roland Emmerich) [2013, США, боевик, триллер, TeleSynch] VO

Ответить на тему
 
Автор Сообщение

user ®

Стаж: 7 лет 7 месяцев

Сообщений: 20008

Пост Пост: #1 от 21-Июл-2013 20:30

[Цитировать]

Штурм Белого дома
White House Down
- Страна: США, Mythology Entertainment (II), Centropolis Entertainment
Жанр: боевик, триллер
Год выпуска: 2013
Продолжительность: 02:05:20
Перевод: Любительский (одноголосый) VANO
Cубтитры: нет
Режиссер: Роланд Эммерих / Roland Emmerich
В ролях: Ченнинг Татум, Джейми Фокс, Мэгги Джилленхол, Джейсон Кларк, Ричард Дженкинс, Джеймс Вудс, Джои Кинг, Николас Райт, Джимми Симпсон, Майкл Мерфи-Описание: Молодой сотрудник госбезопасности получает новое назначение в структуру охраны «Белого дома». Гордясь своей новой позицией, он приводит свою дочь на экскурсию на место своей будущей службы. И именно в этот день «Белый дом» атакуют некие неопознанные вооружённые силы. Офицер проявляет чудеса находчивости и отваги, пытаясь спасти жизнь своему ребёнку, себе и президенту США.
-Качество видео: TeleSynch
Формат видео: AVI
Видео: XviD, 720x304, 1423 kb/s, Bits/Pixel: 0.271
Аудио: MP3, 128 kb/s (2 ch)

MediaInfo

General
Complete name : D:\Documents and Settings\Admin\Мои документы\Downloads\Shturm.Belogo.Doma.2013.L1.TS.avi
Format : AVI
Format/Info : Audio Video Interleave
File size : 1.37 GiB
Duration : 2h 5mn
Overall bit rate : 1 561 Kbps
Writing application : VirtualDubMod 1.5.10.2 (build 2540/release)
Writing library : VirtualDubMod build 2540/release
Video
ID : 0
Format : MPEG-4 Visual
Format profile : Advanced Simple@L5
Format settings, BVOP : 2
Format settings, QPel : No
Format settings, GMC : No warppoints
Format settings, Matrix : Default (MPEG)
Codec ID : XVID
Codec ID/Hint : XviD
Duration : 2h 5mn
Bit rate : 1 424 Kbps
Width : 720 pixels
Height : 304 pixels
Display aspect ratio : 2.35:1
Frame rate : 24.000 fps
Color space : YUV
Chroma subsampling : 4:2:0
Bit depth : 8 bits
Scan type : Progressive
Compression mode : Lossy
Bits/(Pixel*Frame) : 0.271
Stream size : 1.25 GiB (91%)
Writing library : XviD 1.2.1 (UTC 2008-12-04)
Audio
ID : 1
Format : MPEG Audio
Format version : Version 1
Format profile : Layer 3
Mode : Joint stereo
Mode extension : MS Stereo
Codec ID : 55
Codec ID/Hint : MP3
Duration : 2h 5mn
Bit rate mode : Constant
Bit rate : 128 Kbps
Channel(s) : 2 channels
Sampling rate : 48.0 KHz
Compression mode : Lossy
Stream size : 115 MiB (8%)
Alignment : Aligned on interleaves
Interleave, duration : 42 ms (1.00 video frame)
Interleave, preload duration : 504 ms

Скриншоты

Скачать

Скачать торрент!

Как скачивать? · Что такое торрент? · Рейтинг и ограничения

Сайт не распространяет и не хранит электронные версии произведений, а лишь предоставляет доступ к создаваемому пользователями каталогу ссылок на торрент-файлы, которые содержат только списки хеш-сумм

[Профиль] [ЛС]
Показать сообщения:    
Ответить на тему

Текущее время: Сегодня 00:07

Часовой пояс: GMT + 4



Вы не можете начинать темы
Вы не можете отвечать на сообщения
Вы не можете редактировать свои сообщения
Вы не можете удалять свои сообщения
Вы не можете голосовать в опросах
Вы не можете прикреплять файлы к сообщениям
Вы не можете скачивать файлы