Обливион / Oblivion (Джозеф Косински / Joseph Kosinski) [2013, США, фантастика, боевик, триллер, приключения, HDTVRip, Звук с CAMRip] Dub

Ответить на тему
 
Автор Сообщение

user ®

Стаж: 7 лет 7 месяцев

Сообщений: 20008

Пост Пост: #1 от 21-Июл-2013 20:30

[Цитировать]

Обливион / Oblivion
Страна: США
Жанр: фантастика, боевик, триллер, приключения
Год выпуска: 2013
Продолжительность: 02:04:38
Перевод: Профессиональный (дублированный) Звук с CAMRip
Cубтитры: Отсутствуют
Режиссер: Джозеф Косински / Joseph Kosinski
В ролях: Том Круз, Ольга Куриленко, Морган Фриман, Андреа Райзборо, Николай Костер-Вальдау, Мелисса Лео, Зои Белл, Эбигейл Лоу, Изабель Лоу, Дэвид Мэдисон
Описание: Можно ли скучать по месту, в котором никогда не был, мечтать о девушке, которую никогда не видел? Добро пожаловать в будущее! Мы больше не можем называть Землю своим домом. Мы выиграли войну, но не смогли сохранить планету…
Сэмпл: http://multi-up.com/886605
Качество видео: HDTVRip
Формат видео: AVI
Видео: 640x272 (2.35:1), 29.555 fps, XviD MPEG-4 ~1198 kbps avg, 0.23 bit/pixel
Аудио: Русский: 44.100 kHz, MPEG Layer 3, 2 ch, ~320.00 kbps avg
Аудио 2: Английский: 44.100 kHz, MPEG Layer 3, 2 ch, ~128.00 kbps avg

MediaInfo

Общее
Полное имя : D:\torrent\Oblivion.2013..avi
Формат : AVI
Формат/Информация : Audio Video Interleave
Размер файла : 1,45 Гбайт
Продолжительность : 2 ч. 4 м.
Общий поток : 1665 Кбит/сек
Программа кодирования : VirtualDubMod 1.5.10.2 (build 2540/release)
Библиотека кодирования : VirtualDubMod build 2540/release
Видео
Идентификатор : 0
Формат : MPEG-4 Visual
Профиль формата : Advanced Simple@L5
Параметр BVOP формата : 2
Параметр QPel формата : Нет
Параметр GMC формата : Без точки перехода
Параметр матрицы формата : Default (H.263)
Режим смешивания : Сжатый битовый поток
Идентификатор кодека : XVID
Идентификатор кодека/Подсказка : XviD
Продолжительность : 2 ч. 4 м.
Битрейт : 1199 Кбит/сек
Ширина : 640 пикселей
Высота : 272 пикселя
Соотношение сторон : 2,35:1
Частота кадров : 29,555 кадров/сек
Частота кадров в оригинале : 29,560 кадров/сек
Цветовое пространство : YUV
Субдискретизация насыщенности : 4:2:0
Битовая глубина : 8 бит
Тип развёртки : Прогрессивная
Метод сжатия : С потерями
Бит/(Пиксели*Кадры) : 0.233
Размер потока : 1,04 Гбайт (72%)
Библиотека кодирования : XviD 64
Аудио #1
Идентификатор : 1
Формат : MPEG Audio
Версия формата : Version 1
Профиль формата : Layer 3
Идентификатор кодека : 55
Идентификатор кодека/Подсказка : MP3
Продолжительность : 2 ч. 4 м.
Вид битрейта : Постоянный
Битрейт : 320 Кбит/сек
Каналы : 2 канала
Частота : 44,1 КГц
Метод сжатия : С потерями
Размер потока : 285 Мбайт (19%)
Выравнивание : Разделение по промежуткам
Продолжительность промежутка : 34 мс. (1,00 видеокадр)
Время предзагрузки промежутка : 500 мс.
Аудио #2
Идентификатор : 2
Формат : MPEG Audio
Версия формата : Version 1
Профиль формата : Layer 3
Режим : Joint stereo
Расширение режима : MS Stereo
Идентификатор кодека : 55
Идентификатор кодека/Подсказка : MP3
Продолжительность : 2 ч. 4 м.
Вид битрейта : Постоянный
Битрейт : 128 Кбит/сек
Каналы : 2 канала
Частота : 44,1 КГц
Метод сжатия : С потерями
Размер потока : 114 Мбайт (8%)
Выравнивание : Разделение по промежуткам
Продолжительность промежутка : 34 мс. (1,00 видеокадр)
Время предзагрузки промежутка : 500 мс.
Библиотека кодирования : LAME3.99r
Настройки программы : -m j -V 4 -q 2 -lowpass 17 -b 128

Скриншоты

Скачать

Скачать торрент!

Как скачивать? · Что такое торрент? · Рейтинг и ограничения

Сайт не распространяет и не хранит электронные версии произведений, а лишь предоставляет доступ к создаваемому пользователями каталогу ссылок на торрент-файлы, которые содержат только списки хеш-сумм

[Профиль] [ЛС]
Показать сообщения:    
Ответить на тему

Текущее время: Сегодня 01:50

Часовой пояс: GMT + 4



Вы не можете начинать темы
Вы не можете отвечать на сообщения
Вы не можете редактировать свои сообщения
Вы не можете удалять свои сообщения
Вы не можете голосовать в опросах
Вы не можете прикреплять файлы к сообщениям
Вы не можете скачивать файлы