Гагарин. Первый в космосе (Павел Пархоменко) [2013, Россия, драма, биография, история, BDRip]

Ответить на тему
 
Автор Сообщение

user ®

Стаж: 7 лет 7 месяцев

Сообщений: 20008

Пост Пост: #1 от 21-Июл-2013 14:10

[Цитировать]

Гагарин. Первый в космосе- Страна: Россия, Kremlin Films
Жанр: драма, биография, история
Продолжительность: 01:48:11
Год выпуска: 2013
Перевод: Не требуется
Субтитры: Отсутствуют-Режиссёр: Павел Пархоменко-В ролях: Ярослав Жалнин, Михаил Филиппов, Вадим Мичман, Анатолий Отраднов, Даниил Воробьёв, Сергей Калашников, Сергей Лактюнькин, Владимир Стеклов, Инга Оболдина, Владимир Чуприков, Ольга Иванова, Надежда Маркина, Виктор Проскурин, Дмитрий Калистратов, Анзор Камариддинов, Андрей Демченко, Максим Сапрыкин, Данила Букрин, Сергей Тезов, Сергей Кагаков, Вадим Голишников, Анастасия Привалова, Анатолий Гущин, Иван Добронравов, Михаил Горский, Дмитрий Георгиевский, Евгений Потапенко, Дмитрий Тихонов, Алексей Парасич, Александр Завьялов, Илья Рутберг, Валерий Афанасьев, Анатолий Калмыков, Дарья Балабанова-Описание: Фильм посвящен первым шагам человечества на пути освоения космоса и непосредственно судьбе первого космонавта Ю. А. Гагарина. Основной лейтмотив — борьба за право быть первым: соревнование в первом отряде космонавтов; конкуренция технологий в ракетостроении; противостояние сверхдержав — СССР и США.
В первый отряд космонавтов отбирали из трёх тысяч летчиков-истребителей по всей стране. В легендарную двадцатку попали лучшие из лучших. Кто из них полетит первым, не знал никто. На этом пути пришлось бороться не только с земным притяжением…-Автор рипа: avproh- -Качество: BDRip [Исходник: Blu-ray 1080p]
Формат: AVI
Видео: XviD, 624x352 (1.77:1), 25 fps, ~824 kbps avg, 0.15 bit/pixel
Аудио: MP3, 48 kHz, 2 ch, ~128.00 kbps avg-

Подробные технические данные

ОбщееПолное имя : C:\Admin\Desktop\Загрузки\Gagarin.Pervyi.v.kosmose.2013.BDRip.aviФормат : AVIФормат/Информация : Audio Video InterleaveРазмер файла : 745 МбайтПродолжительность : 1 ч. 48 м.Общий поток : 962 Кбит/секПрограмма кодирования : VirtualDubModRus 1.5.10.2 (build 2542/release)Библиотека кодирования : VirtualDubMod build 2542/release
ВидеоИдентификатор : 0Формат : MPEG-4 VisualПрофиль формата : Advanced Simple@L5Параметр BVOP формата : 1Параметр QPel формата : НетПараметр GMC формата : Без точки переходаПараметр матрицы формата : ВыборочнаяИдентификатор кодека : XVIDИдентификатор кодека/Подсказка : XviDПродолжительность : 1 ч. 48 м.Битрейт : 825 Кбит/секШирина : 624 пикселяВысота : 352 пикселяСоотношение сторон : 16:9Частота кадров : 25,000 кадров/секЦветовое пространство : YUVСубдискретизация насыщенности : 4:2:0Битовая глубина : 8 битТип развёртки : ПрогрессивнаяМетод сжатия : С потерямиБит/(Пиксели*Кадры) : 0.150Размер потока : 638 Мбайт (86%)Библиотека кодирования : XviD 65
АудиоИдентификатор : 1Формат : MPEG AudioВерсия формата : Version 1Профиль формата : Layer 3Режим : Joint stereoРасширение режима : MS StereoИдентификатор кодека : 55Идентификатор кодека/Подсказка : MP3Продолжительность : 1 ч. 48 м.Вид битрейта : ПостоянныйБитрейт : 128 Кбит/секКаналы : 2 каналаЧастота : 48,0 КГцМетод сжатия : С потерямиРазмер потока : 99,0 Мбайт (13%)Выравнивание : Соединение по промежуткамПродолжительность промежутка : 40 мс. (1,00 видеокадр)Время предзагрузки промежутка : 504 мс.

Знаете ли вы, что...

• Сцены полета ракеты разработаны студией визуальных эффектов «Улитка» (Москва).
• В районе Евпатории была построена декорация космодрома с ракетой в натуральную величину.
• Производство фильма началось 1 сентября 2009 года.
• Дорисовка ракеты и элементов космодрома производилась студией визуальных эффектов «Algous» (Санкт-Петербург).
• Несколько сцен фильма снимались известным российским кинооператором Вадимом Юсовым («Андрей Рублев», «Я шагаю по Москве», «Солярис», «Они сражались за Родину»).

Скриншоты

-
Скачать

Скачать торрент!

Как скачивать? · Что такое торрент? · Рейтинг и ограничения

Сайт не распространяет и не хранит электронные версии произведений, а лишь предоставляет доступ к создаваемому пользователями каталогу ссылок на торрент-файлы, которые содержат только списки хеш-сумм

[Профиль] [ЛС]
Показать сообщения:    
Ответить на тему

Текущее время: Сегодня 19:59

Часовой пояс: GMT + 4



Вы не можете начинать темы
Вы не можете отвечать на сообщения
Вы не можете редактировать свои сообщения
Вы не можете удалять свои сообщения
Вы не можете голосовать в опросах
Вы не можете прикреплять файлы к сообщениям
Вы не можете скачивать файлы