Мастер Багуа / Сказание о наставнике Багуа / Мастер кунг-фу / The Kungfu Master / Ba Gua Zong Shi (Оу Лихао / Ou Li-Hao) [2012, Китай, боевые искусства, драма, DVDScreener] Sub (Rus)

Ответить на тему
 
Автор Сообщение

user ®

Стаж: 11 лет

Сообщений: 15151

Пост Пост: #1 от 21-Июл-2013 07:50

[Цитировать]

Мастер кунг-фу / Мастер Багуа / Сказание о наставнике Багуа / The Kungfu Master / Ba Gua Zong Shi
Страна: Китай
Жанр: боевые искусства, драма
Год выпуска: 2012
Продолжительность: 01:50:00
Перевод: Субтитры от "Будо-Видео"
Cубтитры: русские
Оригинальная аудиодорожка: Китайский
Режиссер: Оу Лихао
В ролях: Цзе Миу, Оу Лихао, Ванг Мей-Йинг, Брюс Леунг, Чанг Тао
Описание: Дун Хайчуань (Цзе Миу) – юный мастер кунгфу, который на свою беду встает на пути у сына влиятельного чиновника. Тот пытается проучить обнаглевшую деревенщину, но в конце концов погибает сам, а Дун оказывается вне закона. Ему приходится уйти из дома и отправиться в странствия, в которых он сменит несколько учителей и в конце концов превратится в настоящего виртуоза боевых искусств.
Сэмпл: http://multi-up.com/883749
Качество видео: DVDScreener
Формат видео: AVI
Видео: Xvid, 720x480, 3:2, 29.97fps, 1099 Kbps
Аудио: MPEG Audio Layer 3, 48000Hz, 320kbps, stereo
Формат субтитров: hardsub (неотключаемые)
Доп. информация о субтитрах: на чёрном фоне

MediaInfo

General
Complete name : C:\!DUploads\Master.Bagua.2012.DVDScr-BudoVideo.avi
Format : AVI
Format/Info : Audio Video Interleave
File size : 867 MiB
Duration : 1h 50mn
Overall bit rate : 1 099 Kbps
Writing application : Lavf52.94.0
Writing library : VirtualDub build 32706/release
Video
ID : 0
Format : MPEG-4 Visual
Format profile : Advanced Simple@L5
Format settings, BVOP : 2
Format settings, QPel : No
Format settings, GMC : No warppoints
Format settings, Matrix : Default (H.263)
Muxing mode : Packed bitstream
Codec ID : XVID
Codec ID/Hint : XviD
Duration : 1h 50mn
Bit rate : 765 Kbps
Width : 720 pixels
Height : 480 pixels
Display aspect ratio : 3:2
Frame rate : 29.970 fps
Standard : NTSC
Color space : YUV
Chroma subsampling : 4:2:0
Bit depth : 8 bits
Scan type : Progressive
Compression mode : Lossy
Bits/(Pixel*Frame) : 0.074
Stream size : 604 MiB (70%)
Writing library : XviD 64
Audio
ID : 1
Format : MPEG Audio
Format version : Version 1
Format profile : Layer 3
Mode : Joint stereo
Codec ID : 55
Codec ID/Hint : MP3
Duration : 1h 50mn
Bit rate mode : Constant
Bit rate : 320 Kbps
Channel(s) : 2 channels
Sampling rate : 48.0 KHz
Compression mode : Lossy
Stream size : 253 MiB (29%)
Alignment : Aligned on interleaves
Interleave, duration : 24 ms (0.72 video frame)
Interleave, preload duration : 504 ms
Writing library : LAME3.98.4

Скриншот c названием фильма

Скриншоты

Скачать

Скачать торрент! Мастер Багуа / Сказание о наставнике Багуа / Мастер кунг-фу / The Kungfu Master / Ba Gua Zong Shi (Оу Лихао / Ou Li-Hao) [2012, Китай, боевые искусства, драма, DVDScreener] Sub (Rus)

Как скачивать? · Что такое торрент? · Рейтинг и ограничения

Сайт не распространяет и не хранит электронные версии произведений, а лишь предоставляет доступ к создаваемому пользователями каталогу ссылок на торрент-файлы, которые содержат только списки хеш-сумм

[Профиль] [ЛС]
Показать сообщения:    
Ответить на тему

Текущее время: Сегодня 11:17

Часовой пояс: GMT + 4



Вы не можете начинать темы
Вы не можете отвечать на сообщения
Вы не можете редактировать свои сообщения
Вы не можете удалять свои сообщения
Вы не можете голосовать в опросах
Вы не можете прикреплять файлы к сообщениям
Вы не можете скачивать файлы