Мудори / Деревня самоубийц / Mudori (Хён-сон Ли / Hyun-Soon Lee) [2006, Южная Корея, комедия, драма, DVDRip] DVO

Ответить на тему
 
Автор Сообщение

user ®

Стаж: 11 лет

Сообщений: 15151

Пост Пост: #1 от 21-Июл-2013 07:50

[Цитировать]

Мудори / Деревня самоубийц / Mudori
Год выпуска: 2006
Страна: Южная Корея
Жанр: комедия, драма
Продолжительность: 01:41:52
Озвучено: Любительский (двухголосый, закадровый) DeadSno & den904
Перевод: Skyworker
Работа со звуком: КОЛОБОК
Режиссёр: Хён-сон Ли / Hyun-Soon Lee
В ролях: Чу-бон Чои, Ли Хи До, Ли Сын Хён, О Чжон Се, Пак Ин Хван, Хе Сеунг Сео, Со Ён Хи, Ли Сук...
Описание: Невезучая журналистка, у которой дела идут из рук вон плохо, на грани отчаяния, находит в интернете сайт, посвященный одному из живописнейших мест в Корее, где расположена прекраснейшая гора. Именно она стала излюбленным местом всех неудачников, решивших распроститься с жизнью. Девушка понимает, что это ее шанс выплыть, и отправляется туда, пытаясь втереться в доверие к группе самоубийц, вынуждающих ее вместе с ними совершить групповой суицид. Девушка отчаянно сопротивляется, поскольку умирать - не входит в ее планы. Но ее сопротивление наталкивается на интриги, престарелых и брошенных всеми, стариков из деревни Мудори, расположенной рядом с горой. Влача нищенское существование, они сделали популярность этой горы среди самоубийц, своим бизнесом.
Релиз группы: &

Сэмпл: С К А Ч А Т Ь
Качество: DVDRip
Формат: AVI
Видео кодек: XviD
Аудио кодек: MP3
Видео: XviD, 608x336 (1.81:1), 16:9, 29.976 fps, 835 kb/s, 0.171 bits/pixel
Аудио : MP3, 48 kHz, 2 ch, 192 kbps

Скриншоты

MI

omplete name                            : Mudori.2006.DVDRip.avi
Format                                   : AVI
Format/Info                              : Audio Video Interleave
File size                                : 743 MiB
Duration                                 : 1h 40mn
Overall bit rate                         : 1 033 Kbps
Writing application                      : VirtualDubMod 1.5.10.2 (build 2542/release)
Writing library                          : VirtualDubMod build 2542/release
Video
ID                                       : 0
Format                                   : MPEG-4 Visual
Format profile                           : Advanced Simple@L5
Format settings, BVOP                    : 2
Format settings, QPel                    : No
Format settings, GMC                     : No warppoints
Format settings, Matrix                  : Default (H.263)
Muxing mode                              : Packed bitstream
Codec ID                                 : XVID
Codec ID/Hint                            : XviD
Duration                                 : 1h 40mn
Bit rate                                 : 832 Kbps
Width                                    : 608 pixels
Height                                   : 336 pixels
Display aspect ratio                     : 16:9
Frame rate                               : 23.976 fps
Color space                              : YUV
Chroma subsampling                       : 4:2:0
Bit depth                                : 8 bits
Scan type                                : Progressive
Compression mode                         : Lossy
Bits/(Pixel*Frame)                       : 0.170
Stream size                              : 598 MiB (81%)
Writing library                          : XviD 1.2.0SMP (UTC 2006-01-08)
Audio
ID                                       : 1
Format                                   : MPEG Audio
Format version                           : Version 1
Format profile                           : Layer 3
Mode                                     : Joint stereo
Codec ID                                 : 55
Codec ID/Hint                            : MP3
Duration                                 : 1h 40mn
Bit rate mode                            : Constant
Bit rate                                 : 192 Kbps
Channel(s)                               : 2 channels
Sampling rate                            : 48.0 KHz
Compression mode                         : Lossy
Stream size                              : 138 MiB (19%)
Alignment                                : Aligned on interleaves
Interleave, duration                     : 42 ms (1.00 video frame)
Interleave, preload duration             : 504 ms
Скачать

Скачать торрент! Мудори / Деревня самоубийц / Mudori (Хён-сон Ли / Hyun-Soon Lee) [2006, Южная Корея, комедия, драма, DVDRip] DVO

Как скачивать? · Что такое торрент? · Рейтинг и ограничения

Сайт не распространяет и не хранит электронные версии произведений, а лишь предоставляет доступ к создаваемому пользователями каталогу ссылок на торрент-файлы, которые содержат только списки хеш-сумм

[Профиль] [ЛС]
Показать сообщения:    
Ответить на тему

Текущее время: Сегодня 03:45

Часовой пояс: GMT + 4



Вы не можете начинать темы
Вы не можете отвечать на сообщения
Вы не можете редактировать свои сообщения
Вы не можете удалять свои сообщения
Вы не можете голосовать в опросах
Вы не можете прикреплять файлы к сообщениям
Вы не можете скачивать файлы