У Бога свои планы (Дмитрий Тюрин) [2012, остросжетная драма, DVDRip]

Ответить на тему
 
Автор Сообщение

user ®

Стаж: 7 лет 7 месяцев

Сообщений: 20008

Пост Пост: #1 от 21-Июл-2013 01:30

[Цитировать]

У Бога свои планы
Жанр: остросжетная драма
Год выпуска: 2012
Продолжительность: 01:31:07
Режиссёр: Дмитрий Тюрин
В ролях: Елена Захарова, Дмитрий Орлов, Алёна Хмельницкая, Дмитрий Астрахан, Алёна Яковлева, Евгения Дмитриева, Анна Банщикова, Ульяна Урванцева, Екатерина Сёмина, Илария Гребенникова, Маргарита Другаль, Арсений Мурзин, Елизавета Зарубина, Александр Бирюков, Светлана Авилова, Илья Семёнов, Кристина Кучеренко, Мириам Комиссарова, Вероника Вернадская, Максим Юдин, Леонид Кутсар, Анна Литкенс, Елена Кочеткова, Анна Шляхова, Роман Калькаев, Наталья Чернявская, Константин Корольков, Лилия Разакова, Виктория Борисова, Павел Жарков,
Описание: Настя Светлова, 35-летняя суррогатная мать со стажем, при родах пятого ребенка получает травму и теряет возможность иметь детей. И происходит это как раз в тот самый момент, когда она наконец-то решает обзавестись своим собственным ребенком. Жизнь для Насти теряет смысл. Она хочет покончить с собой. По интернету она знакомится с молодым человеком, чтобы вместе с ним уйти из жизни...
Семпл: http://multi-up.com/882355
Качество видео: DVDRip
Формат видео: AVI
Видео: 720x400 (1.80:1), 25 fps, XviD 1.2.0.dev47, 1568 kbps avg, 0.22 bit/pixel
Аудио: 48 kHz, AC3 Dolby Digital, 2/0 (L,R) ch, 192 kbps

MediaInfo

Полное имя : U Boga svoi plany.avi
Формат : AVI
Формат/Информация : Audio Video Interleave
Размер файла : 1,13 Гбайт
Продолжительность : 1 ч. 31 м.
Общий поток : 1771 Кбит/сек
Название фильма : P
Режиссёр : G
Программа кодирования : VirtualDubMod 1.5.10.3 (build 2550/release)
Библиотека кодирования : VirtualDubMod build 2550/release
Видео
Идентификатор : 0
Формат : MPEG-4 Visual
Профиль формата : Advanced Simple@L5
Параметр BVOP формата : 1
Параметр QPel формата : Нет
Параметр GMC формата : Без точки перехода
Параметр матрицы формата : Default (MPEG)
Режим смешивания : Сжатый битовый поток
Идентификатор кодека : XVID
Идентификатор кодека/Подсказка : XviD
Продолжительность : 1 ч. 31 м.
Битрейт : 1569 Кбит/сек
Ширина : 720 пикселей
Высота : 400 пикселей
Соотношение сторон : 16:9
Частота кадров : 25,000 кадров/сек
Цветовое пространство : YUV
Субдискретизация насыщенности : 4:2:0
Битовая глубина : 8 бит
Тип развёртки : Прогрессивная
Метод сжатия : С потерями
Бит/(Пиксели*Кадры) : 0.218
Размер потока : 1023 Мбайт (89%)
Библиотека кодирования : XviD 1.2.0.dev47 (UTC 2006-11-01)
Аудио
Идентификатор : 1
Формат : AC-3
Формат/Информация : Audio Coding 3
Расширение режима : CM (complete main)
Параметр Endianness формата : Big
Идентификатор кодека : 2000
Продолжительность : 1 ч. 31 м.
Вид битрейта : Постоянный
Битрейт : 192 Кбит/сек
Каналы : 2 канала
Расположение каналов : Front: L R
Частота : 48,0 КГц
Битовая глубина : 16 бит
Метод сжатия : С потерями
Размер потока : 125 Мбайт (11%)
Выравнивание : Разделение по промежуткам
Продолжительность промежутка : 40 мс. (1,00 видеокадр)
Время предзагрузки промежутка : 500 мс.

Скриншоты

Скачать

Скачать торрент!

Как скачивать? · Что такое торрент? · Рейтинг и ограничения

Сайт не распространяет и не хранит электронные версии произведений, а лишь предоставляет доступ к создаваемому пользователями каталогу ссылок на торрент-файлы, которые содержат только списки хеш-сумм

[Профиль] [ЛС]
Показать сообщения:    
Ответить на тему

Текущее время: Сегодня 18:06

Часовой пояс: GMT + 4



Вы не можете начинать темы
Вы не можете отвечать на сообщения
Вы не можете редактировать свои сообщения
Вы не можете удалять свои сообщения
Вы не можете голосовать в опросах
Вы не можете прикреплять файлы к сообщениям
Вы не можете скачивать файлы