Улики / Evidence (Олатунде Осунсанми / Olatunde Osunsanmi) [2013, США, Триллер, Ужасы, WEB-DLRip] Dub

Ответить на тему
 
Автор Сообщение

user ®

Стаж: 7 лет 7 месяцев

Сообщений: 20008

Пост Пост: #1 от 21-Июл-2013 01:30

[Цитировать]

Улики / Evidence
Страна: USA
Жанр: Триллер, Ужасы
Год выпуска: 2013
Продолжительность: 01:33:57
Перевод: Профессиональный (дублированный) [Звук с TS]
Cубтитры: нет
Оригинальная аудиодорожка: нет-Режиссер: Олатунде Осунсанми / Olatunde Osunsanmi
В ролях: Рада Митчелл, Стивен Мойер, Торри ДеВито, Нолан Фанк, Дейл Дикки, Гарри Дж. Ленникс, Кэйтлин Стэйси, Амл Амин, Джон Хеймс Ньютон, Светлана Меткина-Описание: В автобусе, направлявшемся в Лас-Вегас, совершено жестокое убийство. На месте преступления — ни одного уцелевшего. Только несколько трупов и хаотичный набор мобильных телефонов, карманных видеокамер и других устройств, оставшихся от потерпевших. Детектив, которому поручено расследование, с помощью сохранившихся записей пытается восстановить цепь загадочных событий, приведших к трагедии.-Доп. информация:
IMDB
Кинопоиск
Сэмпл-Качество видео: WEB-DLRip
Формат видео: MKV
Видео: MPEG-4, 1280x532, соотношение сторон 2.40:1, частота кадров 23.9 кадров/сек., 3938Kb/s
Аудио: Russian: AC3, 192 kb/s (2 ch)
Аудио 2: English: AC3, 384 kb/s (6 ch)-

MediaInfo

Общее
Уникальный идентификатор: 230779296671414242952961656354893416989 (0xAD9E79CE0E4155909F19BD157A8B4A1D)
Полное имя: E:\Evidence.2013.Dt.WEB-DL.720p.mkv
Формат: Matroska
Версия формата: Version 2
Размер файла: 3,02 Гбайт
Продолжительность: 1 ч. 33 м.
Общий поток: 4605 Кбит/сек
Дата кодирования: UTC 2013-07-17 22:53:28
Программа кодирования: mkvmerge v2.9.8 ('C'est le bon') built on Nov 20 2009 13:01:15
Библиотека кодирования: libebml v0.7.9 + libmatroska v0.8.1
Видео
Идентификатор: 1
Формат: AVC
Формат/Информация: Advanced Video Codec
Профиль формата: Main@L3.1
Параметр CABAC формата: Нет
Параметр ReFrames формата: 2 кадра
Идентификатор кодека: V_MPEG4/ISO/AVC
Продолжительность: 1 ч. 33 м.
Битрейт: 3938 Кбит/сек
Ширина: 1280 пикселей
Высота: 532 пикселя
Соотношение сторон: 2,40:1
Режим частоты кадров: Постоянный
Частота кадров: 23,976 кадра/сек
Цветовое пространство: YUV
Субдискретизация насыщенности: 4:2:0
Битовая глубина: 8 бит
Тип развёртки: Прогрессивная
Бит/(Пиксели*Кадры): 0.241
Размер потока: 2,58 Гбайт (86%)
Язык: English
Default: Нет
Forced: Нет
Основные цвета: BT.709
Характеристики трансфера: BT.709
Коэффициенты матрицы: BT.709
Аудио #1
Идентификатор: 2
Формат: AC-3
Формат/Информация: Audio Coding 3
Расширение режима: CM (complete main)
Параметр Endianness формата: Big
Идентификатор кодека: A_AC3
Продолжительность: 1 ч. 33 м.
Вид битрейта: Постоянный
Битрейт: 192 Кбит/сек
Каналы: 2 канала
Расположение каналов: Front: L R
Частота: 48,0 КГц
Битовая глубина: 16 бит
Метод сжатия: С потерями
Размер потока: 129 Мбайт (4%)
Язык: Russian
Default: Да
Forced: Нет
Аудио #2
Идентификатор: 3
Формат: AC-3
Формат/Информация: Audio Coding 3
Расширение режима: CM (complete main)
Параметр Endianness формата: Big
Идентификатор кодека: A_AC3
Продолжительность: 1 ч. 33 м.
Вид битрейта: Постоянный
Битрейт: 384 Кбит/сек
Каналы: 6 каналов
Расположение каналов: Front: L C R, Side: L R, LFE
Частота: 48,0 КГц
Битовая глубина: 16 бит
Метод сжатия: С потерями
Размер потока: 258 Мбайт (8%)
Язык: English
Default: Нет
Forced: Нет

Скриншот c названием фильма


-

Скриншоты

Скачать

Скачать торрент!

Как скачивать? · Что такое торрент? · Рейтинг и ограничения

Сайт не распространяет и не хранит электронные версии произведений, а лишь предоставляет доступ к создаваемому пользователями каталогу ссылок на торрент-файлы, которые содержат только списки хеш-сумм

[Профиль] [ЛС]
Показать сообщения:    
Ответить на тему

Текущее время: Сегодня 14:11

Часовой пояс: GMT + 4



Вы не можете начинать темы
Вы не можете отвечать на сообщения
Вы не можете редактировать свои сообщения
Вы не можете удалять свои сообщения
Вы не можете голосовать в опросах
Вы не можете прикреплять файлы к сообщениям
Вы не можете скачивать файлы