Кадры / The Internship (Шон Леви / Shawn Levy) [2013, США, комедия, CamRip] Dub

Ответить на тему
 
Автор Сообщение

user ®

Стаж: 7 лет 7 месяцев

Сообщений: 20008

Пост Пост: #1 от 21-Июл-2013 01:30

[Цитировать]

-Кадры / The Internship«Решают всё»- Страна: США
Жанр: комедия
Продолжительность: 01:53:17
Год выпуска: 2013
Перевод: Профессиональный (дублированный)
Субтитры: Отсутствуют-Режиссёр: Шон Леви / Shawn Levy-В ролях: Винс Вон, Оуэн Уилсон, Роуз Бирн, Макс Мингелла, Аасиф Мандви, Джош Бренер, Дилан О’Брайэн, Тия Сиркар, Тобит Рафаэль, Джош Гад-Роли дублировали: Пётр Иващенко, Илья Бледный, Даниил Эльдаров, Прохор Чеховской, Василиса Эльдарова, Александр Дасевич, Александр Новиков-Описание: Билли и Ник всю жизнь занимаются продажами. Но новый компьютерный мир рушит их карьеру. Стараясь доказать, что они не отстали от жизни, они бросают вызов судьбе, получив желанную стажировку в компании Google вместе с командой лучших студентов колледжей. Но получить доступ в этот фантастический мир — это только половина дела. Сейчас им придется выдержать конкуренцию с самыми лучшими техническими гениями, чтобы доказать, что необходимость — это мать обновления.-Личная оценка: 9 из 10- -Качество: CamRip
Формат: AVI
Видео: XviD, 720x256 (2.81:1), 25 fps, ~1590 kbps avg, 0.34 bit/pixel
Аудио: AC3, 48 kHz, 2/0 (L,R) ch, ~128 kbps-

Подробные технические данные

ОбщееПолное имя : C:\Admin\Desktop\Загрузки\The Internship.2013.CAMRip.aviФормат : AVIФормат/Информация : Audio Video InterleaveРазмер файла : 1,37 ГбайтПродолжительность : 1 ч. 53 м.Общий поток : 1729 Кбит/секПрограмма кодирования : VirtualDubMod 1.5.10.3 | www.virtualdub-fr.org || (build 2550/release)Библиотека кодирования : VirtualDubMod build 2550/release
ВидеоИдентификатор : 0Формат : MPEG-4 VisualПрофиль формата : Advanced Simple@L5Параметр BVOP формата : 2Параметр QPel формата : НетПараметр GMC формата : Без точки переходаПараметр матрицы формата : Default (MPEG)Идентификатор кодека : XVIDИдентификатор кодека/Подсказка : XviDПродолжительность : 1 ч. 53 м.Битрейт : 1591 Кбит/секШирина : 720 пикселейВысота : 256 пикселейСоотношение сторон : 2,813Частота кадров : 25,000 кадров/секЦветовое пространство : YUVСубдискретизация насыщенности : 4:2:0Битовая глубина : 8 битТип развёртки : ПрогрессивнаяМетод сжатия : С потерямиБит/(Пиксели*Кадры) : 0.345Размер потока : 1,26 Гбайт (92%)Библиотека кодирования : XviD 1.2.1 (UTC 2008-12-04)
АудиоИдентификатор : 1Формат : AC-3Формат/Информация : Audio Coding 3Расширение режима : CM (complete main)Параметр Endianness формата : BigИдентификатор кодека : 2000Продолжительность : 1 ч. 53 м.Вид битрейта : ПостоянныйБитрейт : 128 Кбит/секКаналы : 2 каналаРасположение каналов : Front: L RЧастота : 48,0 КГцБитовая глубина : 16 битМетод сжатия : С потерямиРазмер потока : 104 Мбайт (7%)Выравнивание : Разделение по промежуткамПродолжительность промежутка : 40 мс. (1,00 видеокадр)Время предзагрузки промежутка : 500 мс.

Знаете ли вы, что...

• Название Google произошло от неправильного написания слова «googol» — это число с сотней нулей. Это название было выбрано, чтобы символизировать возможность поисковых систем обеспечивать огромное количество информации.
• Основатель компании Google Сергей Брин появляется в фильме дважды.
• Режиссер Шон Леви снялся в эпизодической роли недовольного сотрудника Google, который пытается вздремнуть, в то время как Ник разговаривает с Даной.

Скриншоты

-
Скачать

Скачать торрент!

Как скачивать? · Что такое торрент? · Рейтинг и ограничения

Сайт не распространяет и не хранит электронные версии произведений, а лишь предоставляет доступ к создаваемому пользователями каталогу ссылок на торрент-файлы, которые содержат только списки хеш-сумм

[Профиль] [ЛС]
Показать сообщения:    
Ответить на тему

Текущее время: Сегодня 04:50

Часовой пояс: GMT + 4



Вы не можете начинать темы
Вы не можете отвечать на сообщения
Вы не можете редактировать свои сообщения
Вы не можете удалять свои сообщения
Вы не можете голосовать в опросах
Вы не можете прикреплять файлы к сообщениям
Вы не можете скачивать файлы