Судьба чемпиона / Destiny's champion / Quan ji xiao ji (Сунь Чун / Sun Chung) [1984, Гонконг, боевые искусства, драма, DVDRip] VO (Jet)

Ответить на тему
 
Автор Сообщение

user ®

Стаж: 11 лет

Сообщений: 15151

Пост Пост: #1 от 20-Июл-2013 12:50

[Цитировать]

Судьба чемпиона / Destiny's champion / Quan ji xiao ji
Страна: Гонконг
Жанр: боевые искусства, драма
Год выпуска: 1984
Продолжительность: 01:36:50-Перевод: Виктор Береговых (Jet)
Переводчик: Sinner
Рип: Public Enemy (((
Оригинальная аудиодорожка: нет-Режиссер: Сунь Чун / Sun Chung-В ролях: Ти Лун, Чун Хин Лун, Люн Юэнь Тьин, Лау Юнь Пин, Джейми Люк Ким Мин, Чэн Кэй Ин-Описание: Сяо Хуа обычный водитель грузовика, который пытается заработать себе на жизнь. Однажды он сталкивается с Евой девушкой его босса Мином. Парень влюбляется в девушку с первого взгляда, и пытается всеми путями завоевать её, пойдя даже против своего босса устроив поединок по кикбоксингу.-Релиз групп - -Качество видео: DVDRip (DVD5)
Формат видео: AVI
Видео: XviD, 720x400 (1.80:1), 23.976 fps, 1956 kbps avg, 0.28 bit/pixel
Аудио : Русский MPEG layer 3, 192 kbps
-

MediaInfo

Format : AVI
Format/Info : Audio Video Interleave
File size : 1.46 GiB
Duration : 1h 36mn
Overall bit rate : 2 158 Kbps
Writing application : VirtualDubMod 1.5.10.2 (build 2540/release)
Writing library : VirtualDubMod build 2540/release
Video
ID : 0
Format : MPEG-4 Visual
Format profile : Advanced Simple@L5
Format settings, BVOP : 1
Format settings, QPel : No
Format settings, GMC : No warppoints
Format settings, Matrix : Custom
Codec ID : XVID
Codec ID/Hint : XviD
Duration : 1h 36mn
Bit rate : 1 957 Kbps
Width : 720 pixels
Height : 400 pixels
Display aspect ratio : 16:9
Frame rate : 23.976 fps
Color space : YUV
Chroma subsampling : 4:2:0
Bit depth : 8 bits
Scan type : Progressive
Compression mode : Lossy
Bits/(Pixel*Frame) : 0.283
Stream size : 1.32 GiB (91%)
Writing library : XviD 73
Audio
ID : 1
Format : MPEG Audio
Format version : Version 1
Format profile : Layer 3
Mode : Joint stereo
Mode extension : MS Stereo
Codec ID : 55
Codec ID/Hint : MP3
Duration : 1h 36mn
Bit rate mode : Constant
Bit rate : 192 Kbps
Channel(s) : 2 channels
Sampling rate : 48.0 KHz
Compression mode : Lossy
Stream size : 133 MiB (9%)
Alignment : Split accross interleaves
Interleave, duration : 42 ms (1.00 video frame)
Interleave, preload duration : 500 ms

Скриншот с названием

Скриншоты

Скачать

Скачать торрент! Судьба чемпиона / Destiny's champion / Quan ji xiao ji (Сунь Чун / Sun Chung) [1984, Гонконг, боевые искусства, драма, DVDRip] VO (Jet)

Как скачивать? · Что такое торрент? · Рейтинг и ограничения

Сайт не распространяет и не хранит электронные версии произведений, а лишь предоставляет доступ к создаваемому пользователями каталогу ссылок на торрент-файлы, которые содержат только списки хеш-сумм

[Профиль] [ЛС]
Показать сообщения:    
Ответить на тему

Текущее время: Сегодня 21:58

Часовой пояс: GMT + 4



Вы не можете начинать темы
Вы не можете отвечать на сообщения
Вы не можете редактировать свои сообщения
Вы не можете удалять свои сообщения
Вы не можете голосовать в опросах
Вы не можете прикреплять файлы к сообщениям
Вы не можете скачивать файлы