Чхирсо и Мансо / Паханы Чилсу и Мансу / Chil-su oa Man-su / Chilsu wa Mansu (Пак Кван Со / Park Kwang-su) [1988, Южная Корея, драма, комедия DVDRip] DVO

Ответить на тему
 
Автор Сообщение

user ®

Стаж: 11 лет

Сообщений: 15151

Пост Пост: #1 от 20-Июл-2013 03:20

[Цитировать]

Чхирсо и Мансо / Паханы Чилсу и Мансу / Chil-su oa Man-su / Chilsu wa Mansu
Страна: Южная Корея
Жанр: драма, комедия
Год выпуска: 1988
Продолжительность: 01:47:19-Перевод: любительский двухголосый закадровый den904 & deadsno
Перевод: Куценко
Рип: Public Enemy (((
Cубтитры: нет
Оригинальная аудиодорожка: нет-Режиссер: Пак Кван Со / Park Kwang-su-В ролях: Ан Сон Ги, Пак Чун Хун-Описание: Чхирсо и Мансо - два бедных художника, которые знакомятся друг с другом и пытаются совместно решить проблемы. Борясь за жизнь, они попутно вляпываются в нелепые ситуации, из которых выбираются лишь благодаря дружеской поддержке. Жизнь постоянно поворачивается к ним спиной в виде бессовестных работодателей, пользующихся затруднительным положением людей искусства, ведь художника обидеть может каждый.-Релиз групп -
-Качество видео: DVDRip (DVD9)
Формат видео: AVI
Видео: XviD, 720x400 (1.80:1), 23.976 fps, 1771 kbps avg, 0.26 bit/pixel
Аудио: Русский MPEG layer 3, 2 ch, 160 kbps
-

MediaInfo

Format : AVI
Format/Info : Audio Video Interleave
File size : 1.46 GiB
Duration : 1h 47mn
Overall bit rate : 1 941 Kbps
Writing application : VirtualDubMod 1.5.10.2 (build 2540/release)
Writing library : VirtualDubMod build 2540/release
Video
ID : 0
Format : MPEG-4 Visual
Format profile : Advanced Simple@L5
Format settings, BVOP : 1
Format settings, QPel : No
Format settings, GMC : No warppoints
Format settings, Matrix : Custom
Codec ID : XVID
Codec ID/Hint : XviD
Duration : 1h 47mn
Bit rate : 1 772 Kbps
Width : 720 pixels
Height : 400 pixels
Display aspect ratio : 16:9
Frame rate : 23.976 fps
Color space : YUV
Chroma subsampling : 4:2:0
Bit depth : 8 bits
Scan type : Progressive
Compression mode : Lossy
Bits/(Pixel*Frame) : 0.257
Stream size : 1.33 GiB (91%)
Writing library : XviD 73
Audio
ID : 1
Format : MPEG Audio
Format version : Version 1
Format profile : Layer 3
Mode : Joint stereo
Mode extension : MS Stereo
Codec ID : 55
Codec ID/Hint : MP3
Duration : 1h 47mn
Bit rate mode : Constant
Bit rate : 160 Kbps
Channel(s) : 2 channels
Sampling rate : 48.0 KHz
Compression mode : Lossy
Stream size : 123 MiB (8%)
Alignment : Split accross interleaves
Interleave, duration : 42 ms (1.00 video frame)
Interleave, preload duration : 500 ms

Скриншот с названием

Скриншоты

Скачать

Скачать торрент! Чхирсо и Мансо / Паханы Чилсу и Мансу / Chil-su oa Man-su / Chilsu wa Mansu (Пак Кван Со / Park Kwang-su) [1988, Южная Корея, драма, комедия DVDRip] DVO

Как скачивать? · Что такое торрент? · Рейтинг и ограничения

Сайт не распространяет и не хранит электронные версии произведений, а лишь предоставляет доступ к создаваемому пользователями каталогу ссылок на торрент-файлы, которые содержат только списки хеш-сумм

[Профиль] [ЛС]
Показать сообщения:    
Ответить на тему

Текущее время: Сегодня 14:18

Часовой пояс: GMT + 4



Вы не можете начинать темы
Вы не можете отвечать на сообщения
Вы не можете редактировать свои сообщения
Вы не можете удалять свои сообщения
Вы не можете голосовать в опросах
Вы не можете прикреплять файлы к сообщениям
Вы не можете скачивать файлы